Tags
Language
Tags

Criminal Minds S13E08

Posted By: Tavaz
1080p (FullHD) / WEBRip IMDb
Criminal Minds S13E08

Criminal Minds S13E08
WEBRip | MKV | 1920x1080 | English | H264 @ 4226 kbps | AAC @ 125 kbps | 40 min 30 s | 1.23 GiB
Genre: Crime, Drama, Mystery, Thriller

The cases of the F.B.I. Behavioral Analysis Unit (B.A.U.), an elite group of profilers who analyze the nation's most dangerous serial killers and individual heinous crimes in an effort to anticipate their next moves before they strike again.



criminal.minds.s13e08.1080p.web.x264-tbs.mkv (1.2 GB)



General
Unique ID : 275042858259551579366928073049429404369 (0xCEEB53E2425F715223316AE808B26AD1)
Complete name : ./criminal.minds.s13e08.1080p.web.x264-tbs.mkv
Format : Matroska
Format version : Version 4 / Version 2
File size : 1.23 GiB
Duration : 40 min 30 s
Overall bit rate : 4 354 kb/s
Encoded date : UTC 2017-11-23 07:07:51
Writing application : mkvmerge v8.8.0 ('Wind at my back') 64bit
Writing library : libebml v1.3.3 + libmatroska v1.4.4

Video
ID : 1
Format : AVC
Format/Info : Advanced Video Codec
Format profile : High@L4
Format settings : CABAC / 4 Ref Frames
Format settings, CABAC : Yes
Format settings, RefFrames : 4 frames
Codec ID : V_MPEG4/ISO/AVC
Duration : 40 min 30 s
Bit rate : 4 227 kb/s
Nominal bit rate : 4 500 kb/s
Width : 1 920 pixels
Height : 1 080 pixels
Display aspect ratio : 16:9
Frame rate mode : Constant
Frame rate : 23.976 (24000/1001) FPS
Color space : YUV
Chroma subsampling : 4:2:0
Bit depth : 8 bits
Scan type : Progressive
Bits/(Pixel*Frame) : 0.085
Stream size : 1.20 GiB (97%)
Writing library : x264 core 148
Encoding settings : cabac=1 / ref=4 / deblock=1:0:0 / analyse=0x3:0x113 / me=hex / subme=8 / psy=1 / psy_rd=1.00:0.00 / mixed_ref=1 / me_range=16 / chroma_me=1 / trellis=2 / 8x8dct=1 / cqm=0 / deadzone=21,11 / fast_pskip=1 / chroma_qp_offset=-2 / threads=34 / lookahead_threads=5 / sliced_threads=0 / nr=0 / decimate=1 / interlaced=0 / bluray_compat=0 / constrained_intra=0 / bframes=3 / b_pyramid=2 / b_adapt=1 / b_bias=0 / direct=3 / weightb=1 / open_gop=0 / weightp=2 / keyint=48 / keyint_min=4 / scenecut=0 / intra_refresh=0 / rc_lookahead=48 / rc=abr / mbtree=1 / bitrate=4500 / ratetol=1.0 / qcomp=0.60 / qpmin=0 / qpmax=69 / qpstep=4 / vbv_maxrate=5400 / vbv_bufsize=4500 / nal_hrd=none / filler=0 / ip_ratio=1.40 / aq=1:1.00
Default : Yes
Forced : No

Audio
ID : 2
Format : AAC
Format/Info : Advanced Audio Codec
Format profile : LC
Codec ID : A_AAC-2
Duration : 40 min 30 s
Bit rate : 125 kb/s
Channel(s) : 2 channels
Channel positions : Front: L R
Sampling rate : 48.0 kHz
Frame rate : 46.875 FPS (1024 SPF)
Compression mode : Lossy
Stream size : 36.3 MiB (3%)
Default : Yes
Forced : No





Criminal Minds S13E08


Criminal Minds S13E08


Criminal Minds S13E08


Criminal Minds S13E08


Criminal Minds S13E08

All episodes