Tags
Language
Tags
February 2023
Su Mo Tu We Th Fr Sa
29 30 31 1 2 3 4
5 6 7 8 9 10 11
12 13 14 15 16 17 18
19 20 21 22 23 24 25
26 27 28 1 2 3 4

Curse of the Puppet Master (1998)

Posted By: Tavaz
1080p (FullHD) / BDRip IMDb
Curse of the Puppet Master (1998)

Curse of the Puppet Master (1998)
BDRip | MKV | 1920x1080 | English | H264 @ 5760 kbps | AC-3 @ 448 kbps | 1 h 17 min | 3.47 GiB
Genre: Fantasy, Horror, Romance, Sci-Fi

A scientist attempts to master the art of transferring people's souls into puppets.,Robert "Tank" begins to work for Dr. Magrew sculpting a puppet for the Doctor to bring to life using the work of Andre Toulon. Robert begins to fall in love with the Doctors daughter, Jane. Unbeknownst to Robert, the Doctor is trying to create a "perfect race" of puppet humans. Jane discovers a "matt puppet" which is from his first assistant. She comes back just in time to see her father, cut up by the puppets, has succeeded in putting a living human, Robert, into the puppet he carved.::Chris Schoettle, B-Movie king,Back for retribution, the living puppets of Andre Toulon are stirred to action, mounting a crusade to foil the diabolical plans of their new insane villainous master. Can they stop the dastardly Dr. Magrew before he transforms another unwitting victim into the newest member of the puppet lineage? Companion action figures sold separately!::Anthony Pereyra {hypersonic91@yahoo.com},The new puppet master, Dr. Magrew and his daughter Jane take a drive and arrive for a gasoline refill and meet the supposibly gental giant, Robert "Tank" Winsley and defend him from bully Joey Carp and his gain. And after seeing what special work Tank can do, Magrew hires him as his new assistant since his earlier one dissapeared without a trace. The time they spend together, Tank and Jane start having feelings for each other that cause her father to go off his nut. As he controls the puppets, he will use them to wreak bloody attacks against his enemies.::Wallace Entertainment

Curse.of.the.Puppet.Master.1998.1080p.BluRay.x264-OFT.mkv (3.5 GB)



General
Unique ID : 124924364834330337914066745941509937144 (0x5DFB8EB8701B474EBA550DA2938E17F8)
Complete name : ./Curse.of.the.Puppet.Master.1998.1080p.BluRay.x264-OFT.mkv
Format : Matroska
Format version : Version 4 / Version 2
File size : 3.47 GiB
Duration : 1 h 17 min
Overall bit rate : 6 397 kb/s
Movie name : Curse.of.the.Puppet.Master.1998.1080p.BluRay.x264-OFT
Encoded date : UTC 2022-08-29 06:39:38
Writing application : mkvmerge v60.0.0 ('Are We Copies?') 64-bit
Writing library : libebml v1.4.2 + libmatroska v1.6.4 / Lavf58.76.100

Video
ID : 1
Format : AVC
Format/Info : Advanced Video Codec
Format profile : High@L4
Format settings : 4 Ref Frames
Format settings, CABAC : No
Format settings, RefFrames : 4 frames
Codec ID : V_MPEG4/ISO/AVC
Duration : 1 h 17 min
Bit rate : 5 760 kb/s
Width : 1 920 pixels
Height : 1 080 pixels
Display aspect ratio : 16:9
Frame rate mode : Constant
Frame rate : 23.976 (24000/1001) FPS
Color space : YUV
Chroma subsampling : 4:2:0
Bit depth : 8 bits
Scan type : Progressive
Bits/(Pixel*Frame) : 0.116
Stream size : 3.12 GiB (90%)
Writing library : x264 core 164 r3065 ae03d92
Encoding settings : cabac=0 / ref=3 / deblock=1:0:0 / analyse=0x3:0x113 / me=hex / subme=7 / psy=1 / psy_rd=1.00:0.00 / mixed_ref=1 / me_range=16 / chroma_me=1 / trellis=1 / 8x8dct=1 / cqm=0 / deadzone=21,11 / fast_pskip=1 / chroma_qp_offset=-2 / threads=34 / lookahead_threads=5 / sliced_threads=0 / nr=0 / decimate=1 / interlaced=0 / bluray_compat=0 / constrained_intra=0 / bframes=3 / b_pyramid=2 / b_adapt=1 / b_bias=0 / direct=1 / weightb=1 / open_gop=0 / weightp=2 / keyint=240 / keyint_min=24 / scenecut=40 / intra_refresh=0 / rc_lookahead=40 / rc=2pass / mbtree=1 / bitrate=5760 / ratetol=1.0 / qcomp=0.60 / qpmin=0 / qpmax=69 / qpstep=4 / cplxblur=20.0 / qblur=0.5 / ip_ratio=1.40 / aq=1:1.00
Default : Yes
Forced : No
Color range : Limited
Color primaries : BT.709
Transfer characteristics : BT.709
Matrix coefficients : BT.709

Audio #1
ID : 2
Format : AC-3
Format/Info : Audio Coding 3
Format settings, Endianness : Big
Codec ID : A_AC3
Duration : 1 h 17 min
Bit rate mode : Constant
Bit rate : 448 kb/s
Channel(s) : 6 channels
Channel positions : Front: L C R, Side: L R, LFE
Sampling rate : 48.0 kHz
Frame rate : 31.250 FPS (1536 SPF)
Bit depth : 16 bits
Compression mode : Lossy
Delay relative to video : -5 ms
Stream size : 249 MiB (7%)
Title : Surround AC3 5.1
Language : English
Service kind : Complete Main
Default : Yes
Forced : No

Audio #2
ID : 3
Format : AC-3
Format/Info : Audio Coding 3
Format settings, Endianness : Big
Codec ID : A_AC3
Duration : 1 h 17 min
Bit rate mode : Constant
Bit rate : 192 kb/s
Channel(s) : 2 channels
Channel positions : Front: L R
Sampling rate : 48.0 kHz
Frame rate : 31.250 FPS (1536 SPF)
Bit depth : 16 bits
Compression mode : Lossy
Delay relative to video : -5 ms
Stream size : 107 MiB (3%)
Title : Commentary
Language : English
Service kind : Complete Main
Default : No
Forced : No

Menu
00:00:00.000 : :Chapter 1
00:06:00.443 : :Chapter 2
00:12:00.678 : :Chapter 3
00:18:01.080 : :Chapter 4
00:24:01.315 : :Chapter 5
00:30:02.092 : :Chapter 6
00:36:02.661 : :Chapter 7
00:42:02.854 : :Chapter 8
00:48:03.255 : :Chapter 9
00:54:03.615 : :Chapter 10
01:00:03.975 : :Chapter 11
01:06:04.669 : :Chapter 12
01:12:05.029 : :Chapter 13





Curse of the Puppet Master (1998)


Curse of the Puppet Master (1998)


Curse of the Puppet Master (1998)


Curse of the Puppet Master (1998)


Curse of the Puppet Master (1998)