Tags
Language
Tags

Dark S01E01

Posted By: Tavaz
1080p (FullHD) / WEBRip IMDb
Dark S01E01

Dark S01E01
WEBRip | MKV | 1920x960 | German | H264 @ 8687 kbps | E-AC-3 @ 448 kbps | 51 min 30 s | 3.29 GiB
Subtitles: Bulgarian, Turkish, German, Romanian, Spanish, French, English, Italian
Genre: Crime, Mystery, Drama

A missing child causes four families to help each other for answers. What they could not imagine is that this mystery would be connected to innumerable other secrets of the small town.

3794af4bb30e4f8cb4fd25aafe5f49a3.mkv (3.3 GB)



General
Complete name : ./3794af4bb30e4f8cb4fd25aafe5f49a3.mkv
Format : Matroska
Format version : Version 4 / Version 2
File size : 3.29 GiB
Duration : 51 min 30 s
Overall bit rate : 9 136 kb/s
Encoded date : UTC 2017-12-01 19:13:46
Writing application : mkvmerge v15.0.0 ('Duel with the Devil') 64-bit
Writing library : libebml v1.3.5 + libmatroska v1.4.5

Video
ID : 1
Format : AVC
Format/Info : Advanced Video Codec
Format profile : High@L4.1
Format settings : CABAC / 4 Ref Frames
Format settings, CABAC : Yes
Format settings, RefFrames : 4 frames
Codec ID : V_MPEG4/ISO/AVC
Duration : 51 min 30 s
Bit rate : 8 688 kb/s
Width : 1 920 pixels
Height : 960 pixels
Display aspect ratio : 2.000
Frame rate mode : Constant
Frame rate : 24.000 FPS
Color space : YUV
Chroma subsampling : 4:2:0
Bit depth : 8 bits
Scan type : Progressive
Bits/(Pixel*Frame) : 0.196
Stream size : 3.13 GiB (95%)
Writing library : x264 core 152 r2851kMod ba24899
Encoding settings : cabac=1 / ref=4 / deblock=1:-3:-3 / analyse=0x3:0x133 / me=umh / subme=10 / psy=1 / fade_compensate=0.00 / psy_rd=1.00:0.00 / mixed_ref=1 / me_range=48 / chroma_me=1 / trellis=2 / 8x8dct=1 / cqm=0 / deadzone=21,11 / fast_pskip=0 / chroma_qp_offset=-2 / threads=48 / lookahead_threads=7 / sliced_threads=0 / nr=0 / decimate=0 / interlaced=0 / bluray_compat=0 / constrained_intra=0 / bframes=8 / b_pyramid=2 / b_adapt=2 / b_bias=0 / direct=3 / weightb=1 / open_gop=0 / weightp=2 / keyint=250 / keyint_min=24 / scenecut=40 / intra_refresh=0 / rc=crf / mbtree=0 / crf=17.0000 / qcomp=0.60 / qpmin=0 / qpmax=69 / qpstep=4 / ip_ratio=1.30 / pb_ratio=1.20 / aq=3:0.80
Language : English
Default : Yes
Forced : No

Audio
ID : 2
Format : E-AC-3
Format/Info : Enhanced Audio Coding 3
Format profile : E-AC-3+Atmos / E-AC-3
Format settings, Endianness : Big
Codec ID : A_EAC3
Duration : 51 min 16 s
Bit rate mode : Constant
Bit rate : 448 kb/s
Channel(s) : 15 objects / 6 channels
Channel positions : 15 objects / Front: L C R, Side: L R, LFE
Sampling rate : 48.0 kHz
Frame rate : 187.500 FPS (256 SPF)
Compression mode : Lossy
Stream size : 164 MiB (5%)
Language : German
Service kind : Complete Main
Default : Yes
Forced : No

Text #1
ID : 3
Format : UTF-8
Codec ID : S_TEXT/UTF8
Codec ID/Info : UTF-8 Plain Text
Duration : 50 min 57 s
Bit rate : 40 b/s
Count of elements : 468
Stream size : 15.0 KiB (0%)
Language : English
Default : No
Forced : No

Text #2
ID : 4
Format : UTF-8
Codec ID : S_TEXT/UTF8
Codec ID/Info : UTF-8 Plain Text
Duration : 48 min 15 s
Bit rate : 62 b/s
Count of elements : 468
Stream size : 22.1 KiB (0%)
Language : Bulgarian
Default : No
Forced : No

Text #3
ID : 5
Format : UTF-8
Codec ID : S_TEXT/UTF8
Codec ID/Info : UTF-8 Plain Text
Duration : 50 min 57 s
Bit rate : 41 b/s
Count of elements : 441
Stream size : 15.5 KiB (0%)
Language : French
Default : No
Forced : No

Text #4
ID : 6
Format : UTF-8
Codec ID : S_TEXT/UTF8
Codec ID/Info : UTF-8 Plain Text
Duration : 47 min 54 s
Bit rate : 49 b/s
Count of elements : 533
Stream size : 17.4 KiB (0%)
Language : German
Default : No
Forced : No

Text #5
ID : 7
Format : UTF-8
Codec ID : S_TEXT/UTF8
Codec ID/Info : UTF-8 Plain Text
Duration : 50 min 58 s
Bit rate : 41 b/s
Count of elements : 441
Stream size : 15.4 KiB (0%)
Language : Italian
Default : No
Forced : No

Text #6
ID : 8
Format : UTF-8
Codec ID : S_TEXT/UTF8
Codec ID/Info : UTF-8 Plain Text
Duration : 49 min 15 s
Bit rate : 41 b/s
Count of elements : 462
Stream size : 14.9 KiB (0%)
Language : Romanian
Default : No
Forced : No

Text #7
ID : 9
Format : UTF-8
Codec ID : S_TEXT/UTF8
Codec ID/Info : UTF-8 Plain Text
Duration : 50 min 58 s
Bit rate : 42 b/s
Count of elements : 467
Stream size : 15.9 KiB (0%)
Language : Spanish
Default : No
Forced : No

Text #8
ID : 10
Format : UTF-8
Codec ID : S_TEXT/UTF8
Codec ID/Info : UTF-8 Plain Text
Duration : 50 min 58 s
Bit rate : 38 b/s
Count of elements : 464
Stream size : 14.3 KiB (0%)
Language : Turkish
Default : No
Forced : No





Dark S01E01


Dark S01E01


Dark S01E01


Dark S01E01


Dark S01E01

All episodes