Discovery Channel - Attack and Capture : The Story of U-Boat 505 (2000)

Posted By: notbanned
SD / DVDRip
Discovery Channel - Attack and Capture : The Story of U-Boat 505 (2000)

Discovery Channel - Attack and Capture : The Story of U-Boat 505 (2000)
DVDRip | 640x480 | .AVI/XviD @ 2144 Kbps | 46 min 10 s | 784 MiB
Audio: English AC3 224 kbps, 2 channels | Subs: None
Genre: Documentary

On June 4, 1944, with World War II still raging across Europe, Captain Daniel Gallery and his men of the U.S. Naval Task Force 22.3 did the nearly impossible - they captured a German U-boat. It was the first enemy man-of-war captured in battle on the high seas by the U.S. Navy since 1815. limb aboard the historic U-505 and relive its journey from a powerhouse of the German fleet to a display at the Museum of Science and Industry in Chicago. Witness exclusive interviews with both German and American crew members involved in the capture of the U-505. And view even rarer footage of Captain Daniel Gallery and Harold Lange, Captain of the U-505 at the time of its capture.

General
Complete name : DC.Attack.and.Capture.The.Story.of.U-Boat.505.avi
Format : AVI
Format/Info : Audio Video Interleave
File size : 784 MiB
Duration : 46 min 10 s
Overall bit rate : 2 375 kb/s

Video
ID : 0
Format : MPEG-4 Visual
Format profile : Advanced Simple@L5
Format settings, BVOP : 1
Format settings, QPel : No
Format settings, GMC : No warppoints
Format settings, Matrix : Custom
Codec ID : XVID
Codec ID/Hint : XviD
Duration : 46 min 10 s
Bit rate : 2 144 kb/s
Width : 640 pixels
Height : 480 pixels
Display aspect ratio : 4:3
Frame rate : 25.000 FPS
Color space : YUV
Chroma subsampling : 4:2:0
Bit depth : 8 bits
Scan type : Progressive
Compression mode : Lossy
Bits/(Pixel*Frame) : 0.279
Stream size : 708 MiB (90%)
Writing library : XviD 1.2.1 (UTC 2008-12-04)

Audio
ID : 1
Format : AC-3
Format/Info : Audio Coding 3
Format settings, Endianness : Big
Codec ID : 2000
Duration : 46 min 9 s
Bit rate mode : Constant
Bit rate : 224 kb/s
Channel(s) : 2 channels
Channel positions : Front: L R
Sampling rate : 48.0 kHz
Frame rate : 31.250 FPS (1536 spf)
Bit depth : 16 bits
Compression mode : Lossy
Delay relative to video : 59 ms
Stream size : 74.0 MiB (9%)
Alignment : Split accross interleaves
Interleave, duration : 96 ms (2.40 video frames)
Interleave, preload duration : 96 ms
Service kind : Complete Main


Screenshots:

Discovery Channel - Attack and Capture : The Story of U-Boat 505 (2000)

Discovery Channel - Attack and Capture : The Story of U-Boat 505 (2000)

Discovery Channel - Attack and Capture : The Story of U-Boat 505 (2000)

Discovery Channel - Attack and Capture : The Story of U-Boat 505 (2000)