Dans ses yeux / El secreto de sus ojos (2009)

Posted By: NaVi7
Dans ses yeux / El secreto de sus ojos (2009)

Dans ses yeux / El secreto de sus ojos (2009)
BDRip 720p | MKV / AVC, 2789 Kbps | 1280x544 | 2h 09mn | 5.35 GB
Francais / Espagnol: DTS, 1509 Kbps (6 ch) | Sous-titres: Francais
Genre: Drame | Mystère | Thriller

En 1999 à Buenos Aires, un agent fédéral à la retraite, Benjamín Esposito, essaie d'écrire l'histoire d'une affaire criminelle qu'il a traitée 25 ans plus tôt et qui le hante toujours : le viol et le meurtre en juin 1974 d'une jeune femme mariée, Liliana Colotto.
Il rencontre sa supérieure de l'époque, Irene, et évoque avec elle l'enquête, qu'en 1974 et 1975 il a menée avec son adjoint, Pablo Sandoval. Les deux hommes, émus par la ferveur de l'amour que le veuf de la victime lui portait et son obstination à retrouver le coupable, ont refusé que le dossier soit classé. Aussi ont-ils désobéi aux ordres pour essayer d'arrêter un suspect.

imdb - Top 250 #156 | Won Oscar. Another 48 wins & 34 nominations.

General
Unique ID : 185718700270158574802032066325981055068 (0x8BB81EE02F75EA8E33D97CABF162485C)
Complete name : Dans Ses Yeux 2010 MULTI 720p BluRay DTS x264-Ganesh.mkv
Format : Matroska
Format version : Version 4 / Version 2
File size : 5.35 GiB
Duration : 2h 9mn
Overall bit rate : 5 924 Kbps
Encoded date : UTC 2010-02-22 21:41:31
Writing application : mkvmerge v5.9.0 ('On The Loose') built on Dec 9 2012 15:48:35
Writing library : libebml v1.3.0 + libmatroska v1.4.0

Video
ID : 1
Format : AVC
Format/Info : Advanced Video Codec
Format profile : High@L4.1
Format settings, CABAC : Yes
Format settings, ReFrames : 6 frames
Muxing mode : Header stripping
Codec ID : V_MPEG4/ISO/AVC
Duration : 2h 9mn
Bit rate : 2 789 Kbps
Width : 1 280 pixels
Height : 544 pixels
Display aspect ratio : 2.35:1
Frame rate mode : Constant
Frame rate : 23.976 fps
Color space : YUV
Chroma subsampling : 4:2:0
Bit depth : 8 bits
Scan type : Progressive
Bits/(Pixel*Frame) : 0.167
Stream size : 2.52 GiB (47%)
Writing library : x264 core 128 r2M 198a7ea
Encoding settings : cabac=1 / ref=6 / deblock=1:-3:-3 / analyse=0x3:0x113 / me=umh / subme=10 / psy=1 / fade_compensate=0.00 / psy_rd=1.00:0.20 / mixed_ref=1 / me_range=64 / chroma_me=1 / trellis=2 / 8x8dct=1 / cqm=0 / deadzone=8,8 / fast_pskip=0 / chroma_qp_offset=-3 / threads=12 / lookahead_threads=2 / sliced_threads=0 / nr=0 / decimate=0 / interlaced=0 / bluray_compat=0 / constrained_intra=0 / bframes=5 / b_pyramid=2 / b_adapt=2 / b_bias=0 / direct=1 / weightb=1 / open_gop=1 / weightp=2 / keyint=250 / keyint_min=23 / scenecut=40 / intra_refresh=0 / rc_lookahead=190 / rc=crf / mbtree=1 / crf=18.0 / qcomp=0.75 / qpmin=0 / qpmax=69 / qpstep=4 / vbv_maxrate=50000 / vbv_bufsize=50000 / crf_max=0.0 / nal_hrd=none / ip_ratio=1.40 / aq=2:0.75
Language : English
Default : Yes
Forced : No

Audio #1
ID : 2
Format : DTS
Format/Info : Digital Theater Systems
Mode : 16
Format settings, Endianness : Big
Muxing mode : Header stripping
Codec ID : A_DTS
Duration : 2h 9mn
Bit rate mode : Constant
Bit rate : 1 509 Kbps
Channel(s) : 6 channels
Channel positions : Front: L C R, Side: L R, LFE
Sampling rate : 48.0 KHz
Bit depth : 24 bits
Compression mode : Lossy
Stream size : 1.36 GiB (25%)
Language : French
Default : Yes
Forced : No

Audio #2
ID : 3
Format : DTS
Format/Info : Digital Theater Systems
Mode : 16
Format settings, Endianness : Big
Muxing mode : Header stripping
Codec ID : A_DTS
Duration : 2h 9mn
Bit rate mode : Constant
Bit rate : 1 509 Kbps
Channel(s) : 6 channels
Channel positions : Front: L C R, Side: L R, LFE
Sampling rate : 48.0 KHz
Bit depth : 24 bits
Compression mode : Lossy
Stream size : 1.36 GiB (25%)
Language : Spanish
Default : No
Forced : No

Text
ID : 4
Format : UTF-8
Codec ID : S_TEXT/UTF8
Codec ID/Info : UTF-8 Plain Text
Language : French
Default : Yes
Forced : No


Les captures d'ecran:

Dans ses yeux / El secreto de sus ojos (2009)

Dans ses yeux / El secreto de sus ojos (2009)

Dans ses yeux / El secreto de sus ojos (2009)


Bienvenue sur mon blog!

Abonnez-vous a ma newsletter!

Pas plus de miroirs!

Si vous voulez le telecharger, mais j'ai decouvert que les liens sont morts, il suffit de laisser un commentaire ou me PM!
Download Links:
http://rapidshare.com/files/2086815549/201.html
Liens vers RapidGator et Uploaded sont dans le fichier html. Telechargez le fichier et l'ouvrir dans votre navigateur.