Tags
Language
Tags

Dark S01 (2017) [Complete Season]

Posted By: JohnSmith
1080p (FullHD) / WEB-DL IMDb
Dark S01 (2017) [Complete Season]

Dark S01 (2017)
WEB-DL 1080p | MKV / AVC@~4500 kb/s | 1920x1080 | 10x~50mn | 10x~2 GB
Italian (dubbed) / German / English (dubbed): AC3, 384 kb/s (6 ch) | Subtitles: Italian, English, Dutch, French, German, Spanish
Genre: Crime | Drama | Mystery | Thriller

A family saga with a supernatural twist, set in a German town, where the disappearance of two young children exposes the relationships among four families.

La scomparsa di due bambini in una città tedesca porta alla luce i rapporti chiusi, la vita matrimoniale e il passato di quattro famiglie che vi abitano.

IMDB - Top Rated TV #138



General
Unique ID : 201413422965685914689375493372636807130 (0x9786D072A146207CB96DDB7BD3EBBFDA)
Complete name : A:\Dark.1080p.S01E01.DD5.1.ITA.GER.ENG.WEBMux.mkv
Format : Matroska
Format version : Version 4 / Version 2
File size : 2.00 GiB
Duration : 51 min 30 s
Overall bit rate mode : Variable
Overall bit rate : 5 552 kb/s
Encoded date : UTC 2017-12-01 10:07:35
Writing application : mkvmerge v16.0.0 ('Protest') 64-bit
Writing library : libebml v1.3.5 + libmatroska v1.4.8

Video
ID : 1
Format : AVC
Format/Info : Advanced Video Codec
Format profile : Main@L4
Format settings, CABAC : Yes
Format settings, ReFrames : 3 frames
Codec ID : V_MPEG4/ISO/AVC
Duration : 51 min 30 s
Bit rate mode : Variable
Bit rate : 4 420 kb/s
Maximum bit rate : 6 630 kb/s
Width : 1 920 pixels
Height : 1 080 pixels
Display aspect ratio : 16:9
Frame rate mode : Constant
Frame rate : 24.000 FPS
Color space : YUV
Chroma subsampling : 4:2:0
Bit depth : 8 bits
Scan type : Progressive
Bits/(Pixel*Frame) : 0.089
Stream size : 1.58 GiB (79%)
Writing library : x264 core 148
Encoding settings : cabac=1 / ref=3 / deblock=1:0:0 / analyse=0x1:0x111 / me=umh / subme=10 / psy=1 / psy_rd=1.00:0.00 / mixed_ref=1 / me_range=24 / chroma_me=1 / trellis=2 / 8x8dct=0 / cqm=0 / deadzone=21,11 / fast_pskip=1 / chroma_qp_offset=-2 / threads=8 / lookahead_threads=1 / sliced_threads=0 / nr=0 / decimate=1 / interlaced=0 / bluray_compat=0 / stitchable=1 / constrained_intra=0 / bframes=2 / b_pyramid=0 / b_adapt=2 / b_bias=0 / direct=3 / weightb=1 / open_gop=0 / weightp=2 / keyint=48 / keyint_min=25 / scenecut=0 / intra_refresh=0 / rc_lookahead=48 / rc=2pass / mbtree=1 / bitrate=4420 / ratetol=1.0 / qcomp=0.50 / qpmin=6 / qpmax=51 / qpstep=4 / cplxblur=20.0 / qblur=0.5 / vbv_maxrate=6630 / vbv_bufsize=8840 / nal_hrd=vbr / filler=0 / ip_ratio=1.40 / aq=1:1.00
Language : English
Default : Yes
Forced : No

Audio #1
ID : 2
Format : AC-3
Format/Info : Audio Coding 3
Format settings, Endianness : Big
Codec ID : A_AC3
Duration : 51 min 30 s
Bit rate mode : Constant
Bit rate : 384 kb/s
Channel(s) : 6 channels
Channel positions : Front: L C R, Side: L R, LFE
Sampling rate : 48.0 kHz
Frame rate : 31.250 FPS (1536 spf)
Bit depth : 16 bits
Compression mode : Lossy
Stream size : 141 MiB (7%)
Language : Italian
Service kind : Complete Main
Default : Yes
Forced : No

Audio #2
ID : 3
Format : AC-3
Format/Info : Audio Coding 3
Format settings, Endianness : Big
Codec ID : A_AC3
Duration : 51 min 30 s
Bit rate mode : Constant
Bit rate : 384 kb/s
Channel(s) : 6 channels
Channel positions : Front: L C R, Side: L R, LFE
Sampling rate : 48.0 kHz
Frame rate : 31.250 FPS (1536 spf)
Bit depth : 16 bits
Compression mode : Lossy
Stream size : 141 MiB (7%)
Language : German
Service kind : Complete Main
Default : No
Forced : No

Audio #3
ID : 4
Format : AC-3
Format/Info : Audio Coding 3
Format settings, Endianness : Big
Codec ID : A_AC3
Duration : 51 min 30 s
Bit rate mode : Constant
Bit rate : 384 kb/s
Channel(s) : 6 channels
Channel positions : Front: L C R, Side: L R, LFE
Sampling rate : 48.0 kHz
Frame rate : 31.250 FPS (1536 spf)
Bit depth : 16 bits
Compression mode : Lossy
Stream size : 141 MiB (7%)
Language : English
Service kind : Complete Main
Default : No
Forced : No

Text #1
ID : 5
Format : UTF-8
Codec ID : S_TEXT/UTF8
Codec ID/Info : UTF-8 Plain Text
Duration : 50 min 58 s
Bit rate : 2 b/s
Count of elements : 23
Stream size : 1 016 Bytes (0%)
Title : FORCED
Language : Italian
Default : Yes
Forced : Yes

Text #2
ID : 6
Format : UTF-8
Codec ID : S_TEXT/UTF8
Codec ID/Info : UTF-8 Plain Text
Duration : 50 min 58 s
Bit rate : 48 b/s
Count of elements : 441
Stream size : 18.1 KiB (0%)
Language : Italian
Default : No
Forced : No

Text #3
ID : 7
Format : UTF-8
Codec ID : S_TEXT/UTF8
Codec ID/Info : UTF-8 Plain Text
Duration : 50 min 57 s
Bit rate : 40 b/s
Count of elements : 468
Stream size : 15.0 KiB (0%)
Language : English
Default : No
Forced : Yes

Text #4
ID : 8
Format : UTF-8
Codec ID : S_TEXT/UTF8
Codec ID/Info : UTF-8 Plain Text
Duration : 48 min 49 s
Bit rate : 39 b/s
Count of elements : 425
Stream size : 14.2 KiB (0%)
Language : Dutch
Default : No
Forced : No

Text #5
ID : 9
Format : UTF-8
Codec ID : S_TEXT/UTF8
Codec ID/Info : UTF-8 Plain Text
Duration : 50 min 57 s
Bit rate : 39 b/s
Count of elements : 441
Stream size : 14.7 KiB (0%)
Language : French
Default : No
Forced : No

Text #6
ID : 10
Format : UTF-8
Codec ID : S_TEXT/UTF8
Codec ID/Info : UTF-8 Plain Text
Duration : 47 min 54 s
Bit rate : 49 b/s
Count of elements : 533
Stream size : 17.4 KiB (0%)
Language : German
Default : No
Forced : No

Text #7
ID : 11
Format : UTF-8
Codec ID : S_TEXT/UTF8
Codec ID/Info : UTF-8 Plain Text
Duration : 50 min 58 s
Bit rate : 39 b/s
Count of elements : 467
Stream size : 14.8 KiB (0%)
Language : Spanish
Default : No
Forced : No




Screenshots

Dark S01 (2017) [Complete Season]

Dark S01 (2017) [Complete Season]

Dark S01 (2017) [Complete Season]

All episodes