Das Boot (1981) Director's Cut

Posted By: NaVi7
Das Boot (1981) Director's Cut

Das Boot (1981) Director's Cut
BDRip 720p | MKV / AVC, 3795 Kbps | 1280x688 | 3h 28mn | 6.46 GB
English: AC3, 640 Kbps (6 ch)
Genre: Action | Adventure | Drama | History | War

It is 1942 and the German submarine fleet is heavily engaged in the so called "Battle of the Atlantic" to harass and destroy British shipping. With better escorts of the Destroyer Class, however, German U-Boats have begun to take heavy losses. "Das Boot" is the story of one such U-Boat crew, with the film examining how these submariners maintained their professionalism as soldiers, attempted to accomplish impossible missions, while all the time attempting to understand and obey the ideology of the government under which they served.

imdb - Top 250 #72 | Nominated for 6 Oscars. Another 13 wins & 5 nominations.

General
Complete name : Das.Boot.1981.Director's.Cut.720p.BRRiP.XViD.AC3-LEGi0N.avi
Format : AVI
Format/Info : Audio Video Interleave
Format profile : OpenDML
File size : 6.46 GiB
Duration : 3h 28mn
Overall bit rate : 4 443 Kbps
Writing application : VirtualDubMod 1.5.10.2 (build 2540/release)
Writing library : VirtualDubMod build 2540/release

Video
ID : 0
Format : MPEG-4 Visual
Format profile : Advanced Simple@L5
Format settings, BVOP : 2
Format settings, QPel : No
Format settings, GMC : No warppoints
Format settings, Matrix : Default (H.263)
Codec ID : XVID
Codec ID/Hint : XviD
Duration : 3h 28mn
Bit rate : 3 795 Kbps
Width : 1 280 pixels
Height : 688 pixels
Display aspect ratio : 1.85:1
Frame rate : 23.976 fps
Color space : YUV
Chroma subsampling : 4:2:0
Bit depth : 8 bits
Scan type : Progressive
Compression mode : Lossy
Bits/(Pixel*Frame) : 0.180
Stream size : 5.52 GiB (85%)
Writing library : XviD 1.2.1 (UTC 2008-12-04)

Audio
ID : 1
Format : AC-3
Format/Info : Audio Coding 3
Mode extension : CM (complete main)
Format settings, Endianness : Big
Codec ID : 2000
Duration : 3h 28mn
Bit rate mode : Constant
Bit rate : 640 Kbps
Channel(s) : 6 channels
Channel positions : Front: L C R, Side: L R, LFE
Sampling rate : 48.0 KHz
Bit depth : 16 bits
Compression mode : Lossy
Stream size : 953 MiB (14%)
Alignment : Split accross interleaves
Interleave, duration : 42 ms (1.00 video frame)
Interleave, preload duration : 500 ms


screenshots:

Das Boot (1981) Director's Cut

Das Boot (1981) Director's Cut

Das Boot (1981) Director's Cut


Welcome to My Blog!

Subscribe to My Newsletter!

No more mirrors!

If you want to download it, but found out that links are dead, just leave a comment or PM me!
Download Links (password: avaxhome.ws):
Uploaded | Rapidgator
Links to RapidGator and Uploaded are inside the html file. Download the file and open it in your browser.