Tags
Language
Tags

Channel 4 - David Jasons Secret Service: Series.1 (2017)

Posted By: notbanned
720p (HD) / HDTV
Channel 4 - David Jasons Secret Service: Series.1 (2017)

Channel 4 - David Jasons Secret Service: Series.1 (2017)
HDTV | 1280x720 | .MP4/AVC @ 3200 Kbps | 3x~47min | 3.30 GiB
Audio: English AAC 160 kbps, 2 channels | Subs: None
Genre: Documentary

Passionate espionage enthusiast Sir David Jason reveals the secret places, the people and the compelling stories behind Britain's incredible spy history, from the early 20th century to the modern day.
Part 1: 1
Sir David reveals the legendary characters, audacious missions and makeshift methods of spying's early days, and uncovers the real heroes and heroines who were pivotal to Allied victory in World War I

Part 2: 2
Sir David reveals true stories of unbelievable heroism in World War II, in a world of cold-blooded assassins, crack saboteurs, elite commandos, playboy spies, super-villains and femmes fatales

Part 3:
Sir David searches out Britain's eccentric amateur inventors and backyard boffins, who played a key role in the defeat of Hitler and created the machinery of 21st-century surveillance

General
Complete name : David.Jasons.Secret.Service.Series.1.1of3.720p.mp4
Format : MPEG-4
Format profile : Base Media / Version 2
Codec ID : mp42 (mp42/isom/avc1)
File size : 1.11 GiB
Duration : 47 min 23 s
Overall bit rate mode : Variable
Overall bit rate : 3 343 kb/s

Video
ID : 1
Format : AVC
Format/Info : Advanced Video Codec
Format profile : High@L4.1
Format settings, CABAC : Yes
Format settings, ReFrames : 4 frames
Codec ID : avc1
Codec ID/Info : Advanced Video Coding
Duration : 47 min 23 s
Bit rate : 3 200 kb/s
Width : 1 280 pixels
Height : 720 pixels
Display aspect ratio : 16:9
Frame rate mode : Constant
Frame rate : 25.000 FPS
Color space : YUV
Chroma subsampling : 4:2:0
Bit depth : 8 bits
Scan type : Progressive
Bits/(Pixel*Frame) : 0.139
Stream size : 1.05 GiB (95%)
Encoding settings : cabac=1 / ref=1 / deblock=1:0:0 / analyse=0x3:0x113 / me=hex / subme=2 / psy=1 / psy_rd=1.00:0.00 / mixed_ref=0 / me_range=16 / chroma_me=1 / trellis=0 / 8x8dct=1 / cqm=0 / deadzone=21,11 / fast_pskip=1 / chroma_qp_offset=0 / threads=6 / lookahead_threads=2 / sliced_threads=0 / nr=0 / decimate=1 / interlaced=0 / bluray_compat=0 / constrained_intra=0 / bframes=3 / b_pyramid=2 / b_adapt=1 / b_bias=0 / direct=1 / weightb=1 / open_gop=0 / weightp=1 / keyint=250 / keyint_min=25 / scenecut=40 / intra_refresh=0 / rc_lookahead=10 / rc=abr / mbtree=1 / bitrate=3200 / ratetol=1.0 / qcomp=0.60 / qpmin=0 / qpmax=69 / qpstep=4 / vbv_maxrate=62500 / vbv_bufsize=78125 / nal_hrd=none / ip_ratio=1.40 / aq=1:1.00
Encoded date : UTC 2017-12-20 00:32:35
Tagged date : UTC 2017-12-20 01:13:25
Color range : Limited
Color primaries : BT.709
Transfer characteristics : BT.709
Matrix coefficients : BT.709

Audio
ID : 2
Format : AAC
Format/Info : Advanced Audio Codec
Format profile : LC
Codec ID : 40
Duration : 47 min 23 s
Bit rate mode : Variable
Bit rate : 160 kb/s
Maximum bit rate : 285 kb/s
Channel(s) : 2 channels
Channel positions : Front: L R
Sampling rate : 48.0 kHz
Frame rate : 46.875 FPS (1024 spf)
Compression mode : Lossy
Stream size : 54.2 MiB (5%)
Title : Stereo
Language : English
Encoded date : UTC 2017-12-20 00:32:35
Tagged date : UTC 2017-12-20 01:13:25


Screenshots:

Channel 4 - David Jasons Secret Service: Series.1 (2017)

Channel 4 - David Jasons Secret Service: Series.1 (2017)

Channel 4 - David Jasons Secret Service: Series.1 (2017)

Channel 4 - David Jasons Secret Service: Series.1 (2017)