Days That Shook the World: The Complete Series (2003-2006) (Repost)

Posted By: Polik88
Days That Shook the World: The Complete Series (2003-2006) (Repost)

Days That Shook the World: The Complete Series (2003-2006) (Repost)
DVDRip | English | AVI/XVID 25.000 fps 1513 Kbps | 592x336 | MP3 128 Kbps 48.0 khz | 2 channels | 18.2 GB
Genre: Documentary

Fascinating and dramatic, these are the events that changed the way we view the world. From the tragedies of humanity to the triumphs of science, these are our historic landmarks. Witness the liberation of Nelson Mandela, the assassination of Martin Luther King, the attack on Pearl Harbor, the coronation of Queen Elizabeth II, the moon landing, the fall of the Berlin wall and many other seismic events through dramatic reconstruction, eyewitness accounts and riveting archival footage.
General
Complete name : First in Flight The Wright Brothers And Apollo 11's Moon Landing.avi
Format : AVI
Format/Info : Audio Video Interleave
File size : 698 MiB
Duration : 58mn 51s
Overall bit rate mode : Variable
Overall bit rate : 1 658 Kbps
Writing application : VirtualDubMod 1.5.10.2 (build 2540/release)
Writing library : VirtualDubMod build 2540/release

Video
ID : 0
Format : MPEG-4 Visual
Format profile : Advanced Simple@L5
Format settings, BVOP : 2
Format settings, QPel : No
Format settings, GMC : No warppoints
Format settings, Matrix : Default (H.263)
Codec ID : XVID
Codec ID/Hint : XviD
Duration : 58mn 51s
Bit rate : 1 513 Kbps
Width : 592 pixels
Height : 336 pixels
Display aspect ratio : 16:9
Frame rate : 25.000 fps
Color space : YUV
Chroma subsampling : 4:2:0
Bit depth : 8 bits
Scan type : Progressive
Compression mode : Lossy
Bits/(Pixel*Frame) : 0.304
Stream size : 637 MiB (91%)
Writing library : XviD 1.1.2 (UTC 2006-11-01)

Audio
ID : 1
Format : MPEG Audio
Format version : Version 1
Format profile : Layer 3
Mode : Joint stereo
Codec ID : 55
Codec ID/Hint : MP3
Duration : 58mn 51s
Bit rate mode : Variable
Bit rate : 128 Kbps
Channel(s) : 2 channels
Sampling rate : 48.0 KHz
Compression mode : Lossy
Stream size : 55.5 MiB (8%)
Alignment : Aligned on interleaves
Interleave, duration : 24 ms (0.60 video frame)
Interleave, preload duration : 393 ms
Writing library : LAME3.90.
Encoding settings : -m j -V 4 -q 2 -lowpass 17.6 –abr 128

Screenshots

Days That Shook the World: The Complete Series (2003-2006) (Repost)

Days That Shook the World: The Complete Series (2003-2006) (Repost)

Days That Shook the World: The Complete Series (2003-2006) (Repost)

no mirrors please, Follow The Rules
Visit Polik88 Blog Here
no password