Tags
Language
Tags

Sci Ch - Engineering Catastrophes Series 3: Part 10 Deepwater Disaster (2019)

Posted By: Tutorial
Sci Ch - Engineering Catastrophes Series 3: Part 10 Deepwater Disaster (2019)

Sci Ch - Engineering Catastrophes Series 3: Part 10 Deepwater Disaster (2019)
HDTV | 1920 x 1080 | .MP4/AVC @ 4594 Kbps | 42 min 29 s | 1.41 GB
Audio: English AAC 160 Kbps, 2 channels | Subs: English
Genre: Documentary

The Deepwater Horizon oil rig drilled into the deepest oil reserves on the planet, but a sudden explosion on-board led to the worst oil spill in history; experts reveal what went wrong and how cutting-edge science finally fixed this catastrophe.

General
Complete name : Engineering.Catastrophes.Series.3.Part.10.Deepwater.Disaster..mp4
Format : MPEG-4
Format profile : Base Media
Codec ID : isom (isom)
File size : 1.41 GiB
Duration : 42 min 29 s
Overall bit rate mode : Variable
Overall bit rate : 4 757 kb/s
Encoded date : UTC 2020-01-14 14:33:20
Tagged date : UTC 2020-01-14 14:33:20

Video
ID : 1
Format : AVC
Format/Info : Advanced Video Codec
Format profile : High@L4.1
Format settings, CABAC : No
Format settings, ReFrames : 1 frame
Format settings, GOP : M=1, N=12
Codec ID : avc1
Codec ID/Info : Advanced Video Coding
Duration : 42 min 29 s
Bit rate : 4 594 kb/s
Maximum bit rate : 23.6 Mb/s
Width : 1 920 pixels
Height : 1 080 pixels
Display aspect ratio : 16:9
Frame rate mode : Constant
Frame rate : 23.976 (24000/1001) FPS
Color space : YUV
Chroma subsampling : 4:2:0
Bit depth : 8 bits
Scan type : Progressive
Bits/(Pixel*Frame) : 0.092
Stream size : 1.36 GiB (97%)
Title : Engineering.Catastrophes.Series.3.Part.10.Deepwater.Disaster.1080p.HDTV.x264.AAC..org.mp4
Language : English
Encoded date : UTC 2019-12-12 14:50:09
Tagged date : UTC 2020-01-14 14:33:38

Audio
ID : 2
Format : AAC
Format/Info : Advanced Audio Codec
Format profile : LC
Codec ID : 40
Duration : 42 min 29 s
Bit rate mode : Variable
Bit rate : 160 kb/s
Maximum bit rate : 231 kb/s
Channel(s) : 2 channels
Channel positions : Front: L R
Sampling rate : 48.0 kHz
Frame rate : 46.875 FPS (1024 spf)
Compression mode : Lossy
Stream size : 48.6 MiB (3%)
Title : Engineering.Catastrophes.Series.3.Part.10.Deepwater.Disaster.1080p.HDTV.x264.AAC..org.mp4
Language : English
Encoded date : UTC 2020-01-14 14:33:32
Tagged date : UTC 2020-01-14 14:33:38

Text
ID : 3
Format : Timed Text
Codec ID : tx3g
Duration : 42 min 28 s
Bit rate mode : Variable
Bit rate : 138 b/s
Stream size : 43.0 KiB (0%)
Title : Engineering.Catastrophes.Series.3.Part.10.Deepwater.Disaster.1080p.HDTV.x264.AAC..org.srt
Forced : No
Encoded date : UTC 2020-01-14 14:33:38
Tagged date : UTC 2020-01-14 14:33:38
Screenshots

Sci Ch - Engineering Catastrophes Series 3: Part 10 Deepwater Disaster (2019)

Sci Ch - Engineering Catastrophes Series 3: Part 10 Deepwater Disaster (2019)

Welcome to my blog - daily update!

Sci Ch - Engineering Catastrophes Series 3: Part 10 Deepwater Disaster (2019)