Demain (2015)

Posted By: Tutorial
Demain (2015)

Demain (2015)
BDRip | 720 x 302 | .AVI/XviD @ 1800 Kbps | 1h 59mn | French AC-3 448 kbps, 6 channels | 1.89 GB
Genre: Documentary

Climate is changing. Instead of showing all the worst that can happen, this documentary focuses on the people suggesting solutions and their actions.
Directors: Cyril Dion, Mélanie Laurent
Writer: Cyril Dion
Stars: Anthony Barnosky, Olivier De Schutter, Cyril Dion
More info: IMDB

General
Complete name : Demain.2015.avi
Format : AVI
Format/Info : Audio Video Interleave
File size : 1.89 GiB
Duration : 1h 59mn
Overall bit rate : 2 257 Kbps

Video
ID : 0
Format : MPEG-4 Visual
Format profile : Advanced Simple@L5
Format settings, BVOP : 2
Format settings, QPel : No
Format settings, GMC : No warppoints
Format settings, Matrix : Default (H.263)
Muxing mode : Packed bitstream
Codec ID : XVID
Codec ID/Hint : XviD
Duration : 1h 59mn
Bit rate : 1 800 Kbps
Width : 720 pixels
Height : 302 pixels
Display aspect ratio : 2.40:1
Frame rate : 23.976 fps
Color space : YUV
Chroma subsampling : 4:2:0
Bit depth : 8 bits
Scan type : Progressive
Compression mode : Lossy
Bits/(Pixel*Frame) : 0.345
Stream size : 1.51 GiB (80%)
Writing library : XviD 64

Audio
ID : 1
Format : AC-3
Format/Info : Audio Coding 3
Mode extension : CM (complete main)
Codec ID : 2000
Duration : 1h 59mn
Bit rate mode : Constant
Bit rate : 448 Kbps
Channel(s) : 6 channels
Channel positions : Front: L C R, Side: L R, LFE
Sampling rate : 48.0 KHz
Bit depth : 16 bits
Compression mode : Lossy
Stream size : 384 MiB (20%)
Alignment : Aligned on interleaves
Interleave, duration : 42 ms (1.00 video frame)
Screenshots

Demain (2015)

Demain (2015)

Demain (2015)

Demain (2015)

Demain (2015)

Welcome to my blog - daily update!

Demain (2015)