Tags
Language
Tags

Smithsonian Ch. - Design with the Other 90 Percent: Series 1 (2011)

Posted By: notbanned
1080p (FullHD) / HDTV
Smithsonian Ch. - Design with the Other 90 Percent: Series 1 (2011)

Smithsonian Ch. - Design with the Other 90 Percent: Series 1 (2011)
HDTV | 1920x1080 | .MP4/AVC @ 4941 Kbps | 4x~26min | 3.59 GiB
Audio: English AAC 160 kbps, 2 channels | Subs: English
Genre: Documentary

Worldwide, billions of people have little access to things that many of us take for granted: shelter, food, clean water, transportation, and health care. But what they lack in resources, many make up for with determination and resourcefulness. This series, inspired by the Cooper-Hewitt National Design Museum exhibition, takes a closer look at the ingenious ways that people are teaming up to find solutions to daunting urban problems. From Africa to South America to Asia - visionaries around the world show how good design can solve problems and create a better future - for 100% of us.

Part 1: A New Vision
See how designers and innovators around the world are tackling issues of urban poverty with determination and ingenuity.

Part 2: Ideas into Action
From the simple, to the profound to the life changing, see how design ideas and solutions are making a difference in the lives of millions around the world.

Part 3: Crossroads of Change
A changing environment and shifting population patterns present significant new demands on cities worldwide. Luckily, people are coming up with ingenious answers.

Part 4: Looking Forward
Come see how an organization founded by 50 street beggars is now building a brand new town in Kenya.

General
Complete name : Design.with.the.Other.90.Percent.1of4.A.New.Vision.1080p.mp4
Format : MPEG-4
Format profile : Base Media
Codec ID : isom (isom)
File size : 950 MiB
Duration : 26 min 1 s
Overall bit rate mode : Variable
Overall bit rate : 5 103 kb/s

Video
ID : 1
Format : AVC
Format/Info : Advanced Video Codec
Format profile : High@L4.1
Format settings, CABAC : No
Format settings, ReFrames : 1 frame
Format settings, GOP : M=1, N=12
Codec ID : avc1
Codec ID/Info : Advanced Video Coding
Duration : 26 min 1 s
Bit rate : 4 941 kb/s
Maximum bit rate : 24.6 Mb/s
Width : 1 920 pixels
Height : 1 080 pixels
Display aspect ratio : 16:9
Frame rate mode : Constant
Frame rate : 29.970 (30000/1001) FPS
Color space : YUV
Chroma subsampling : 4:2:0
Bit depth : 8 bits
Scan type : Progressive
Bits/(Pixel*Frame) : 0.079
Encoded date : UTC 2019-09-12 20:53:54
Tagged date : UTC 2019-09-13 11:07:03

Audio
ID : 2
Format : AAC
Format/Info : Advanced Audio Codec
Format profile : LC
Codec ID : 40
Duration : 26 min 1 s
Bit rate mode : Variable
Bit rate : 160 kb/s
Maximum bit rate : 233 kb/s
Channel(s) : 2 channels
Channel positions : Front: L R
Sampling rate : 48.0 kHz
Frame rate : 46.875 FPS (1024 spf)
Compression mode : Lossy
Stream size : 29.8 MiB (3%)
Encoded date : UTC 2019-09-13 11:06:59
Tagged date : UTC 2019-09-13 11:07:03

Text
ID : 3
Format : Timed Text
Codec ID : tx3g
Duration : 25 min 32 s
Bit rate mode : Variable
Bit rate : 180 b/s
Stream size : 33.7 KiB (0%)
Forced : No
Encoded date : UTC 2019-09-13 11:07:03
Tagged date : UTC 2019-09-13 11:07:03


Screenshots:

Smithsonian Ch. - Design with the Other 90 Percent: Series 1 (2011)

Smithsonian Ch. - Design with the Other 90 Percent: Series 1 (2011)

Smithsonian Ch. - Design with the Other 90 Percent: Series 1 (2011)

Smithsonian Ch. - Design with the Other 90 Percent: Series 1 (2011)