Tags
Language
Tags
June 2024
Su Mo Tu We Th Fr Sa
26 27 28 29 30 31 1
2 3 4 5 6 7 8
9 10 11 12 13 14 15
16 17 18 19 20 21 22
23 24 25 26 27 28 29
30 1 2 3 4 5 6

Die Somme: Das Grab der Millionen (1930)

Posted By: RSU75
SD / DVD IMDb
Die Somme: Das Grab der Millionen (1930)

Die Somme: Das Grab der Millionen (1930)
DVD Video | PAL 4:3 | 720x576 | 1hr 42mn | 4.88 Gb
DVDRip | MKV | AVC 700x576, ~ 1.9 Mbps | 1hr 42mn | 1.48 GB
German (Silent): AC3, 2 ch, 192 kbps | Intertitles: German
Subtitles: English, French, Portuguese, Spanish, Arabic, Russian, Chinese
Genre: War



Director: Heinz Paul
Writer: Heinz Paul
Stars: Walter Edthofer, Oscar Marion, Hermine Sterler

1916, the Allies launched an attack along the front by the Somme River. In April, the first shots fell, the supply facilities of the Germans were bombed. The ground troops, however, were still in the trenches. From the 1st of July, it starts: one million soldiers will perish. Are the three sons of a suffering mother (Hermine Sterler) included?

"The Somme" does not make it easy for the viewer. On the one hand, we are dealing here with a very early mix of documentary and feature film. The battle scenes are correspondingly real and you get the feeling to be there on the spot. In addition, everything is handled very neutral and sober, the death of a German may weigh a little heavier than that of an ally, but you can understand that in the light of the country of production. For a German film of the year 1930, he remains pleasantly neutral and his vision seems to be that such lossy battles will not be repeated in the future. Commendable.

Extras DVD:
- None




Title: DieSommeDasGrabDerMillionen.1930.D9
Size: 4.88 Gb ( 5 121 462,00 KBytes ) - DVD-9
Enabled regions: 1, 2, 3, 4, 5, 6, 7, 8

VTS_01 :
Play Length: 01:42:19
Video: PAL 4:3 (720x576) VBR
Audio:
Not specified (Dolby AC3, 2 ch)
Subtitles:
English
Espanol
Francais
Portugues
Russian
Arabic
Chinese

VTS_02 :
Play Length: 00:00:20
Video: PAL 4:3 (720x576) VBR
Audio:
Deutsch (Dolby AC3, 2 ch)





General
Unique ID : 240406656847628717540368778018286580789 (0xB4DCA34F12570C3B904F695F8601B435)
Complete name : F:\DieSommeDasGrabDerMillionen.1930.Dr.mkv
Format : Matroska
Format version : Version 4 / Version 2
File size : 1.48 GiB
Duration : 1 h 42 min
Overall bit rate : 2 073 kb/s
Movie name : Release RSU75
Encoded date : UTC 2019-09-22 04:00:49
Writing application : mkvmerge v6.6.0 ('The Edge Of The In Between') built on Dec 1 2013 17:55:00
Writing library : libebml v1.3.0 + libmatroska v1.4.1

Video
ID : 1
Format : AVC
Format/Info : Advanced Video Codec
Format profile : High@L4.1
Format settings : CABAC / 4 Ref Frames
Format settings, CABAC : Yes
Format settings, ReFrames : 4 frames
Codec ID : V_MPEG4/ISO/AVC
Duration : 1 h 42 min
Bit rate : 1 900 kb/s
Width : 700 pixels
Height : 576 pixels
Display aspect ratio : 1.297
Original display aspect rat : 1.296
Frame rate mode : Constant
Frame rate : 25.000 FPS
Color space : YUV
Chroma subsampling : 4:2:0
Bit depth : 8 bits
Scan type : Progressive
Bits/(Pixel*Frame) : 0.188
Stream size : 1.31 GiB (89%)
Writing library : x264 core 148 r2643 5c65704
Encoding settings : cabac=1 / ref=4 / deblock=1:0:0 / analyse=0x3:0x113 / me=umh / subme=8 / psy=1 / psy_rd=1.00:0.00 / mixed_ref=1 / me_range=24 / chroma_me=1 / trellis=1 / 8x8dct=1 / cqm=0 / deadzone=21,11 / fast_pskip=1 / chroma_qp_offset=-2 / threads=3 / lookahead_threads=1 / sliced_threads=0 / nr=0 / decimate=1 / interlaced=0 / bluray_compat=0 / constrained_intra=0 / bframes=3 / b_pyramid=0 / b_adapt=2 / b_bias=0 / direct=3 / weightb=1 / open_gop=0 / weightp=2 / keyint=250 / keyint_min=25 / scenecut=40 / intra_refresh=0 / rc_lookahead=40 / rc=abr / mbtree=1 / bitrate=1900 / ratetol=1.0 / qcomp=0.60 / qpmin=10 / qpmax=51 / qpstep=4 / ip_ratio=1.41 / aq=1:1.00
Language : English
Default : Yes
Forced : No

Audio
ID : 2
Format : AC-3
Format/Info : Audio Coding 3
Commercial name : Dolby Digital
Codec ID : A_AC3
Duration : 1 h 42 min
Bit rate mode : Constant
Bit rate : 192 kb/s
Channel(s) : 2 channels
Channel layout : L R
Sampling rate : 48.0 kHz
Frame rate : 31.250 FPS (1536 SPF)
Bit depth : 16 bits
Compression mode : Lossy
Stream size : 141 MiB (9%)
Language : English
Service kind : Complete Main
Default : Yes
Forced : No

Text #1
ID : 3
Format : VobSub
Muxing mode : zlib
Codec ID : S_VOBSUB
Codec ID/Info : Picture based subtitle format used on DVDs
Language : English
Default : Yes
Forced : No

Text #2
ID : 4
Format : VobSub
Muxing mode : zlib
Codec ID : S_VOBSUB
Codec ID/Info : Picture based subtitle format used on DVDs
Language : Spanish
Default : No
Forced : No

Text #3
ID : 5
Format : VobSub
Muxing mode : zlib
Codec ID : S_VOBSUB
Codec ID/Info : Picture based subtitle format used on DVDs
Language : French
Default : No
Forced : No

Text #4
ID : 6
Format : VobSub
Muxing mode : zlib
Codec ID : S_VOBSUB
Codec ID/Info : Picture based subtitle format used on DVDs
Language : Portuguese
Default : No
Forced : No

Text #5
ID : 7
Format : VobSub
Muxing mode : zlib
Codec ID : S_VOBSUB
Codec ID/Info : Picture based subtitle format used on DVDs
Language : Russian
Default : No
Forced : No

Text #6
ID : 8
Format : VobSub
Muxing mode : zlib
Codec ID : S_VOBSUB
Codec ID/Info : Picture based subtitle format used on DVDs
Language : Arabic
Default : No
Forced : No

Text #7
ID : 9
Format : VobSub
Muxing mode : zlib
Codec ID : S_VOBSUB
Codec ID/Info : Picture based subtitle format used on DVDs
Language : Chinese
Default : No
Forced : No

Menu
00:00:00.080 : en:Chapter 01
00:10:00.080 : en:Chapter 02
00:20:03.920 : en:Chapter 03
00:30:00.560 : en:Chapter 04
00:40:00.080 : en:Chapter 05
00:50:01.040 : en:Chapter 06
01:00:02.960 : en:Chapter 07
01:10:00.080 : en:Chapter 08
01:20:00.080 : en:Chapter 09
01:30:00.080 : en:Chapter 10
01:40:00.080 : en:Chapter 11
01:42:18.440 : en:Chapter 12




Screenshots DVD (click to enlarge to original size):

Die Somme: Das Grab der Millionen (1930)

Die Somme: Das Grab der Millionen (1930)

Die Somme: Das Grab der Millionen (1930)

Die Somme: Das Grab der Millionen (1930)

Die Somme: Das Grab der Millionen (1930)



Screenshots DVDRip (click to enlarge to original size):

Die Somme: Das Grab der Millionen (1930)



Thanks to original uploader of DVD version


–––––––––––––––––––––––––––––––––––––––-