Discovery Channel - Raising the Kursk (2002)

Posted By: notbanned
Discovery Channel - Raising the Kursk (2002)

Discovery Channel - Raising the Kursk (2002)
DVDRip | 720x544 | .AVI/DivX @ 2157 Kbps | 51mn 35s | 895 MiB
Audio: English AC3 256 kbps, 2 channels | Subs: None
Genre: Documentary

K-141 Kursk was an Oscar-II class nuclear-powered cruise missile submarine of the Russian Navy, lost with all 118 hands when it sank in the Barents Sea on August 12, 2000. At 154m long and four stories high it was the largest attack submarine ever built. To serve aboard the Oscar-II class nuclear submarine was always considered safe, so accidental explosion rocked not only the Russian government, military experts and families of the victims, but causing also extensive discussion in the international community. The Russian government decided to conduct the largest-ever marine salvage operation. By interviews with personnel and graphical analysis of the scene, you will witness how the tireless divers worked day and night in a race against the clock. 'Raising the Kursk' tells the true story of this extremely complex operation.


General
Complete name : Discovery.Channel.Raising.the.Kursk.avi
Format : AVI
Format/Info : Audio Video Interleave
File size : 895 MiB
Duration : 51mn 35s
Overall bit rate : 2 426 Kbps

Video
ID : 0
Format : MPEG-4 Visual
Format profile : Advanced Simple@L5
Format settings, BVOP : 1
Format settings, QPel : No
Format settings, GMC : No warppoints
Format settings, Matrix : Default (MPEG)
Codec ID : DX50
Codec ID/Hint : DivX 5
Duration : 51mn 35s
Bit rate : 2 157 Kbps
Width : 720 pixels
Height : 544 pixels
Display aspect ratio : 4:3
Frame rate : 29.970 fps
Color space : YUV
Chroma subsampling : 4:2:0
Bit depth : 8 bits
Scan type : Progressive
Compression mode : Lossy
Bits/(Pixel*Frame) : 0.184
Stream size : 796 MiB (89%)
Writing library : XviD 1.2.1 (UTC 2008-12-04)

Audio
ID : 1
Format : AC-3
Format/Info : Audio Coding 3
Format profile : Dolby Digital
Mode extension : CM (complete main)
Format settings, Endianness : Big
Codec ID : 2000
Duration : 51mn 35s
Bit rate mode : Constant
Bit rate : 256 Kbps
Channel(s) : 2 channels
Channel positions : Front: L R
Sampling rate : 48.0 KHz
Compression mode : Lossy
Stream size : 94.5 MiB (11%)
Alignment : Aligned on interleaves
Interleave, duration : 32 ms (0.96 video frame)


Screenshots:

Discovery Channel - Raising the Kursk (2002)

Discovery Channel - Raising the Kursk (2002)

Discovery Channel - Raising the Kursk (2002)

Discovery Channel - Raising the Kursk (2002)