Discovery Channel - Extreme Smuggling (2013)

Posted By: Polik88
Discovery Channel - Extreme Smuggling (2013)

Discovery Channel - Extreme Smuggling (2013)
English | MP4 | 720x404 | AVC 1090 Kbps 29.970 fps | ACC 127 Kbps 48.0 khz | 4x42mn | 4x370 MB
Genre: Documentary

"Extreme Smuggling", is a documentary series that looks at the world of drug smuggling, animal trafficking and illegal gun trading. Each episode details sophisticated and sometimes bizarre techniques used by criminals to move contraband, both on land and on the water. Footage will include some rare video of smugglers in action (some was shot by undercover agents and some by a producer who gained the trust of the criminals).
General
Complete name : Extreme.Smuggling.1x01.Drugs.Part.1.mp4
Format : MPEG-4
Format profile : Base Media
Codec ID : isom
File size : 371 MiB
Duration : 42mn 29s
Overall bit rate mode : Variable
Overall bit rate : 1 221 Kbps
Encoded date : UTC 2013-01-15 18:28:49
Tagged date : UTC 2013-01-15 18:28:49

Video
ID : 1
Format : AVC
Format/Info : Advanced Video Codec
Format profile : High@L3.1
Format settings, CABAC : Yes
Format settings, ReFrames : 5 frames
Codec ID : avc1
Codec ID/Info : Advanced Video Coding
Duration : 42mn 29s
Bit rate mode : Variable
Bit rate : 1 090 Kbps
Maximum bit rate : 6 046 Kbps
Width : 720 pixels
Height : 404 pixels
Display aspect ratio : 16:9
Frame rate mode : Constant
Frame rate : 29.970 fps
Color space : YUV
Chroma subsampling : 4:2:0
Bit depth : 8 bits
Scan type : Progressive
Bits/(Pixel*Frame) : 0.125
Stream size : 331 MiB (89%)
Writing library : x264 core 129 r2245 bc13772
Encoding settings : cabac=1 / ref=5 / deblock=1:0:0 / analyse=0x3:0x113 / me=umh / subme=8 / psy=1 / psy_rd=1.00:0.00 / mixed_ref=1 / me_range=16 / chroma_me=1 / trellis=1 / 8x8dct=1 / cqm=0 / deadzone=21,11 / fast_pskip=1 / chroma_qp_offset=-2 / threads=9 / lookahead_threads=1 / sliced_threads=0 / nr=0 / decimate=1 / interlaced=0 / bluray_compat=0 / constrained_intra=0 / bframes=3 / b_pyramid=2 / b_adapt=2 / b_bias=0 / direct=3 / weightb=1 / open_gop=0 / weightp=2 / keyint=300 / keyint_min=30 / scenecut=40 / intra_refresh=0 / rc_lookahead=50 / rc=crf / mbtree=1 / crf=22.0 / qcomp=0.60 / qpmin=0 / qpmax=69 / qpstep=4 / ip_ratio=1.40 / aq=1:1.00
Encoded date : UTC 2013-01-15 18:28:49
Tagged date : UTC 2013-01-15 18:30:47
Matrix coefficients : BT.709-5, BT.1361, IEC 61966-2-4 709, SMPTE RP177

Audio
ID : 2
Format : AAC
Format/Info : Advanced Audio Codec
Format profile : LC
Codec ID : 40
Duration : 42mn 29s
Bit rate mode : Variable
Bit rate : 127 Kbps
Maximum bit rate : 155 Kbps
Channel(s) : 2 channels
Channel positions : Front: L R
Sampling rate : 48.0 KHz
Compression mode : Lossy
Stream size : 38.5 MiB (10%)
Language : English
Encoded date : UTC 2013-01-15 18:30:46
Tagged date : UTC 2013-01-15 18:30:47

Screenshots

Discovery Channel - Extreme Smuggling (2013)

Discovery Channel - Extreme Smuggling (2013)

Discovery Channel - Extreme Smuggling (2013)

no mirrors please, Follow The Rules
Visit Polik88 Blog Here
no password