Discovery Channel - James Cameron's Expedition: Bismarck (2002)

Posted By: Polik88
Discovery Channel - James Cameron's Expedition: Bismarck (2002)

Discovery Channel - James Cameron's Expedition: Bismarck (2002)
DVDRip | English | AVI/XVID 29.970 fps 2240 Kbps | 704x400 | AC3 192 Kbps 48.0 khz | 1h 34mn | 1.61 GB
Genre: Documentary

Venture to the ocean deep with Titanic director James Cameron and the Discovery Channel. The mighty Bismarck was the Second World War’s most feared and infamous battleship. For more than sixty years, it has rested at the bottom of the North Sea. Three miles under the middle of the Atlantic Ocean, director James Cameron utilizes the expertise of historians, survivors, and an undersea team to explore the wreck of the DKM Bismarck, a mighty German ship which managed to bury the British fleet's finest underwater with one blow during World War II. A feat so rage-inducing, the Bismarck's dismantling punishment was immediately ordered by Prime Minister Winston Churchill, but its ultimate disapparance was never fully qualified as either a successful sinking by the British or a scuttling by the Bismarck's very own crew. Decades later, the mystery of its sinking is reexamined, the circumstances enlightened with the help of startling undersea cinematography, animated segments, and detailed reenactments of the players and events involved. Each element combined attempts to piece together the lost moments of history for this legendary sea vessel.
General
Complete name : DC.James.Cameron's.Expedition.Bismarck.avi
Format : AVI
Format/Info : Audio Video Interleave
File size : 1.61 GiB
Duration : 1h 34mn
Overall bit rate : 2 444 Kbps
Writing application : VirtualDubMod 1.5.10.2 (build 2542/release)
Writing library : VirtualDubMod build 2542/release

Video
ID : 0
Format : MPEG-4 Visual
Format profile : Advanced Simple@L5
Format settings, BVOP : 1
Format settings, QPel : Yes
Format settings, GMC : No warppoints
Format settings, Matrix : Custom
Codec ID : XVID
Codec ID/Hint : XviD
Duration : 1h 34mn
Bit rate : 2 240 Kbps
Width : 704 pixels
Height : 400 pixels
Display aspect ratio : 16:9
Frame rate : 29.970 fps
Color space : YUV
Chroma subsampling : 4:2:0
Bit depth : 8 bits
Scan type : Progressive
Compression mode : Lossy
Bits/(Pixel*Frame) : 0.265
Stream size : 1.48 GiB (92%)
Writing library : XviD 1.2.1 (UTC 2008-12-04)

Audio
ID : 1
Format : AC-3
Format/Info : Audio Coding 3
Format profile : Dolby Digital
Mode extension : CM (complete main)
Format settings, Endianness : Big
Codec ID : 2000
Duration : 1h 34mn
Bit rate mode : Constant
Bit rate : 192 Kbps
Channel(s) : 2 channels
Channel positions : Front: L R
Sampling rate : 48.0 KHz
Bit depth : 16 bits
Compression mode : Lossy
Stream size : 130 MiB (8%)
Alignment : Split accross interleaves
Interleave, duration : 33 ms (1.00 video frame)
Interleave, preload duration : 500 ms

Screenshots

Discovery Channel - James Cameron's Expedition: Bismarck (2002)

Discovery Channel - James Cameron's Expedition: Bismarck (2002)

Discovery Channel - James Cameron's Expedition: Bismarck (2002)

no mirrors please, Follow The Rules
Visit Polik88 Blog Here
no password