Discovery Channel - Spy Tek (1998)

Posted By: Polik88
Discovery Channel - Spy Tek (1998)

Discovery Channel - Spy Tek (1998)
DVDRip | English | AVI/XVID 29.970 fps 2128 Kbps | 704x528 | AC3 256 Kbps 48.0 khz | 3x52mn | 3x891 MB
Genre: Documentary

The world of espionage is exposed in SpyTek, the Discovery Channel television series hosted by Roger Moore. Series covers the secret world of cloak and dagger during the Cold War, the origins of secret services, the art of espionage, assassinations and covert killing. The role of spies over the last 60 years cuts a chord through world events: Trotsky's assassination, the Francis Gary Powers prisoner exchange, and the damage done by the Walker spy ring. Included are interviews with moles, spies, member of the GRU, the KGB, the CIA, the SAS, MI-6, MI-5, OSS among others. SpyTek exposes the astounding technology of espionage, and the dogged, remorse-less spies who stole the secrets. Encounter assassination tools so ingenious, they were undetectable: a gun that shot cyanide vapor and caused death upon inhalation; an umbrella whose hidden needle implanted a poisoned pellet; and a terrifying shellfish toxin, without an antidote. You can get the feel of espionage : the thrill of high level clandestine operations, and the monotony and patience of out-waiting opponents and targets. SpyTek takes you into the previously unseen archives from both sides of the covert world.

Part 1: Spy vs Spy
Spy vs. Spy reveals fierce Cold War battles between enemy spies whose wit, daring, courage and technological tools fought a 40-year campaign of stealth, deception and betrayal. Watch as cleverly concealed pistols, cameras, and listening devices fueled the warriors of a clandestine struggle.

Part 2: The Deadly Game
The Deadly Game brings you face-to-face with historic spy technology: powerful silencers used by British SAS agents against Nazi war criminals; the KGB's ultra-lethal cyanide guns; the CIA's supertoxins; and the armor-plated vehicles used to combat modern terrorists.

Part 3: The Real 007
The Real 007 presents an intriguing interview with Aldrich Ames, the American CIA agent who sold secrets to the Russians; plus the first-ever film tour of Moscow's KGB Museum.
General
Complete name : Discovery.Channel.Spy.Tek.1of3.avi
Format : AVI
Format/Info : Audio Video Interleave
File size : 891 MiB
Duration : 52mn 1s
Overall bit rate : 2 396 Kbps
Writing application : VirtualDubMod 1.5.10.2 (build 2542/release)
Writing library : VirtualDubMod build 2542/release

Video
ID : 0
Format : MPEG-4 Visual
Format profile : Advanced Simple@L5
Format settings, BVOP : 1
Format settings, QPel : Yes
Format settings, GMC : No warppoints
Format settings, Matrix : Custom
Codec ID : XVID
Codec ID/Hint : XviD
Duration : 52mn 1s
Bit rate : 2 128 Kbps
Width : 704 pixels
Height : 528 pixels
Display aspect ratio : 4:3
Frame rate : 29.970 fps
Color space : YUV
Chroma subsampling : 4:2:0
Bit depth : 8 bits
Scan type : Progressive
Compression mode : Lossy
Bits/(Pixel*Frame) : 0.191
Stream size : 792 MiB (89%)
Writing library : XviD 1.2.1 (UTC 2008-12-04)

Audio
ID : 1
Format : AC-3
Format/Info : Audio Coding 3
Format profile : Dolby Digital
Mode extension : CM (complete main)
Format settings, Endianness : Big
Codec ID : 2000
Duration : 52mn 0s
Bit rate mode : Constant
Bit rate : 256 Kbps
Channel(s) : 2 channels
Channel positions : Front: L R
Sampling rate : 48.0 KHz
Bit depth : 16 bits
Compression mode : Lossy
Stream size : 95.2 MiB (11%)
Alignment : Split accross interleaves
Interleave, duration : 33 ms (1.00 video frame)
Interleave, preload duration : 500 ms

Screenshots

Discovery Channel - Spy Tek (1998)

Discovery Channel - Spy Tek (1998)

Discovery Channel - Spy Tek (1998)

no mirrors please, Follow The Rules
Visit Polik88 Blog Here
no password