Discovery Channel - The Da Vinci Code: The True Story (2013)

Posted By: Polik88
Discovery Channel - The Da Vinci Code: The True Story (2013)

Discovery Channel - The Da Vinci Code: The True Story (2013)
English | MP4 | 832x464 | AVC 1912 Kbps 25.000 fps | AAC 128 Kbps 48.0 khz | 43mn 39s | 638 MB
Genre: Documentary

The True Story looks at the real lives and true stories behind Hollywood blockbusters and this episode looks at Ron Howard’s controversial box office hit The Da Vinci Code. The film adaptation of the best-selling novel by Dan Brown sees Robert Langdon (Tom Hanks) caught up in a two thousand year old battle between a mysterious secret society and the Orthodox Church to suppress the greatest secret in history: The true nature and final resting place of the Holy Grail. The Da Vinci Code follows Langdon’s attempt to solve a series of puzzles and codes left behind by great renaissance artist Leonardo Da Vinci. Hidden in one of his greatest masterpieces are clues to the true nature of the Holy Grail – clues Langdon must decipher to lead him to the shocking truth. The film enthralled and enraged audiences in equal measure due its assertion that Jesus had a sexual relationship with Mary Magdalene, leading Catholics to call for a boycott on the film altogether. The film’s creator however, stood by his research and claims that 99% of the film was true. So what is the truth? Brand new historical evidence and investigations show how the film’s plot was based on real organizations and events.
General
Complete name : Discovery.Ch.The.Da.Vinci.Code.The.True.Story.mp4
Format : MPEG-4
Format profile : Base Media
Codec ID : isom
File size : 638 MiB
Duration : 43mn 39s
Overall bit rate mode : Variable
Overall bit rate : 2 044 Kbps
Encoded date : UTC 2013-01-31 02:08:56
Tagged date : UTC 2013-01-31 02:08:56

Video
ID : 1
Format : AVC
Format/Info : Advanced Video Codec
Format profile : High@L4.0
Format settings, CABAC : Yes
Format settings, ReFrames : 3 frames
Codec ID : avc1
Codec ID/Info : Advanced Video Coding
Duration : 43mn 39s
Bit rate : 1 912 Kbps
Maximum bit rate : 5 258 Kbps
Width : 832 pixels
Height : 464 pixels
Display aspect ratio : 16:9
Frame rate mode : Constant
Frame rate : 25.000 fps
Color space : YUV
Chroma subsampling : 4:2:0
Bit depth : 8 bits
Scan type : Progressive
Bits/(Pixel*Frame) : 0.198
Stream size : 597 MiB (94%)
Writing library : x264 core 66 r1092 60f4cd8
Encoding settings : cabac=1 / ref=3 / deblock=1:-1:-1 / analyse=0x3:0x113 / me=umh / subme=9 / psy_rd=1.1:0.0 / mixed_ref=0 / me_range=16 / chroma_me=0 / trellis=0 / 8x8dct=1 / cqm=0 / deadzone=21,11 / chroma_qp_offset=-2 / threads=3 / nr=0 / decimate=1 / mbaff=0 / bframes=3 / b_pyramid=0 / b_adapt=2 / b_bias=0 / direct=3 / wpredb=1 / keyint=250 / keyint_min=25 / scenecut=40(pre) / rc=2pass / bitrate=1912 / ratetol=1.0 / qcomp=0.60 / qpmin=10 / qpmax=51 / qpstep=4 / cplxblur=20.0 / qblur=0.5 / vbv_maxrate=25000 / vbv_bufsize=14000 / ip_ratio=1.40 / pb_ratio=1.30 / aq=1:1.00
Encoded date : UTC 2013-01-31 02:08:56
Tagged date : UTC 2013-01-31 02:10:08

Audio
ID : 2
Format : AAC
Format/Info : Advanced Audio Codec
Format profile : LC
Codec ID : 67
Duration : 43mn 39s
Bit rate mode : Variable
Bit rate : 128 Kbps
Maximum bit rate : 136 Kbps
Channel(s) : 2 channels
Channel positions : Front: L R
Sampling rate : 48.0 KHz
Compression mode : Lossy
Stream size : 40.1 MiB (6%)
Encoded date : UTC 2013-01-31 02:10:03
Tagged date : UTC 2013-01-31 02:10:08

Screenshots

Discovery Channel - The Da Vinci Code: The True Story (2013)

Discovery Channel - The Da Vinci Code: The True Story (2013)

Discovery Channel - The Da Vinci Code: The True Story (2013)

no mirrors please, Follow The Rules
Visit Polik88 Blog Here
no password