Discovery Channel - The Science Of Sex Appeal (2009) (Repost)

Posted By: Polik88
Discovery Channel - The Science Of Sex Appeal (2009) (Repost)

Discovery Channel - The Science Of Sex Appeal (2009) (Repost)
DVDRip | English | AVI/XVID 29.970 fps 994 Kbps | 624x352 | MP3 128 Kbps 48.0 khz | 1h 26mn | 700 MB
Genre: Documentary

The Discovery Channel goes deep into the mystery of sex appeal with this special television event. The show describes attraction in detail: what is genetic, hormonal, and neurological.Science of Sex Appeal isolates every detail of human sex appeal and explores it in terms of its evolution and function. It shows us what is genetic, what is hormonal, and what neurological.What is based on sight, what on smell and what on small, subtle cues like voice and movement. Ultimately, it takes one of our deepest subconscious processes and lays it out to us in shocking and specific detail. You’ll never look at a stranger, or your loved one, or yourself, in quite the same way again.
The Science of Sex Appeal isolates every detail of human sex appeal and explores it in terms of its evolution and function. It shows us what is genetic, what is hormonal, and what neurological. What is based on sight, what on smell and what on small, subtle cues like voice and movement. Ultimately, it takes one of our deepest subconscious processes and lays it out to us in shocking and specific detail. You'll never look at a stranger, or your loved one, or yourself, in quite the same way again.
General
Complete name : Science of Sex Appeal.avi
Format : AVI
Format/Info : Audio Video Interleave
File size : 700 MiB
Duration : 1h 26mn
Overall bit rate : 1 130 Kbps
Writing application : VirtualDubMod 1.5.4.1 (build 2178/release)
Writing library : VirtualDubMod build 2178/release

Video
ID : 0
Format : MPEG-4 Visual
Format profile : Advanced Simple@L5
Format settings, BVOP : 1
Format settings, QPel : No
Format settings, GMC : No warppoints
Format settings, Matrix : Custom
Codec ID : XVID
Codec ID/Hint : XviD
Duration : 1h 26mn
Bit rate : 994 Kbps
Width : 624 pixels
Height : 352 pixels
Display aspect ratio : 16:9
Frame rate : 29.970 fps
Color space : YUV
Chroma subsampling : 4:2:0
Bit depth : 8 bits
Scan type : Progressive
Compression mode : Lossy
Bits/(Pixel*Frame) : 0.151
Stream size : 615 MiB (88%)
Writing library : XviD 1.2.1 (UTC 2008-12-04)

Audio
ID : 1
Format : MPEG Audio
Format version : Version 1
Format profile : Layer 3
Mode : Joint stereo
Mode extension : MS Stereo
Codec ID : 55
Codec ID/Hint : MP3
Duration : 1h 26mn
Bit rate mode : Constant
Bit rate : 128 Kbps
Channel(s) : 2 channels
Sampling rate : 48.0 KHz
Compression mode : Lossy
Stream size : 79.3 MiB (11%)
Alignment : Aligned on interleaves
Interleave, duration : 67 ms (2.00 video frames)
Interleave, preload duration : 504 ms
Writing library : LAME3.98r
Encoding settings : -m j -V 4 -q 2 -lowpass 17 -b 128

Screenshots

Discovery Channel - The Science Of Sex Appeal (2009) (Repost)

Discovery Channel - The Science Of Sex Appeal (2009) (Repost)

Discovery Channel - The Science Of Sex Appeal (2009) (Repost)

no mirrors please, Follow The Rules
Visit Polik88 Blog Here
no password