Tags
Language
Tags

Do Women Have a Higher Sex Drive? (2018)

Posted By: Tavaz
720p (HD) / WEB-DL IMDb
Do Women Have a Higher Sex Drive? (2018)

Do Women Have a Higher Sex Drive? (2018)
WEB-DL | MKV | 1280x720 | English | H264 @ 1937 kbps | E-AC-3 @ 224 kbps | 1 h 9 min | 1.05 GiB
Subtitles: English
Genre: Documentary

For years men have thought women had a lower sexdrive? Can men be proven wrong again? The film explores the the scientific, historical, biological and social aspects behind the female sex drive and female gaze.

b305e76a71c7447d9eeff52e608fd166.mkv (1.1 GB)



General
Unique ID : 91452105127160153003912784677981984153 (0x44CD08E6F5AC37DEDCC16C5913551599)
Complete name : ./b305e76a71c7447d9eeff52e608fd166.mkv
Format : Matroska
Format version : Version 4 / Version 2
File size : 1.05 GiB
Duration : 1 h 9 min
Overall bit rate mode : Variable
Overall bit rate : 2 163 kb/s
Encoded date : UTC 2018-09-08 05:24:35
Writing application : mkvmerge v21.0.0 ('Tardigrades Will Inherit The Earth') 64-bit
Writing library : libebml v1.3.5 + libmatroska v1.4.8

Video
ID : 1
Format : AVC
Format/Info : Advanced Video Codec
Format profile : High@L3.1
Format settings : CABAC / 5 Ref Frames
Format settings, CABAC : Yes
Format settings, RefFrames : 5 frames
Codec ID : V_MPEG4/ISO/AVC
Duration : 1 h 9 min
Bit rate mode : Variable
Bit rate : 1 937 kb/s
Maximum bit rate : 4 500 kb/s
Width : 1 280 pixels
Height : 720 pixels
Display aspect ratio : 16:9
Frame rate mode : Constant
Frame rate : 25.000 FPS
Color space : YUV
Chroma subsampling : 4:2:0
Bit depth : 8 bits
Scan type : Progressive
Bits/(Pixel*Frame) : 0.084
Stream size : 967 MiB (90%)
Default : Yes
Forced : No
Color range : Limited
Color primaries : BT.709
Transfer characteristics : BT.709
Matrix coefficients : BT.709

Audio
ID : 2
Format : E-AC-3
Format/Info : Enhanced Audio Coding 3
Format settings, Endianness : Big
Codec ID : A_EAC3
Duration : 1 h 9 min
Bit rate mode : Constant
Bit rate : 224 kb/s
Channel(s) : 2 channels
Channel positions : Front: L R
Sampling rate : 48.0 kHz
Frame rate : 187.500 FPS (256 SPF)
Compression mode : Lossy
Stream size : 112 MiB (10%)
Language : English
Service kind : Complete Main
Default : Yes
Forced : No

Text
ID : 3
Format : UTF-8
Codec ID : S_TEXT/UTF8
Codec ID/Info : UTF-8 Plain Text
Duration : 1 h 0 min
Bit rate : 113 b/s
Count of elements : 1244
Stream size : 50.0 KiB (0%)
Title : SDH
Language : English
Default : No
Forced : No





Do Women Have a Higher Sex Drive? (2018)


Do Women Have a Higher Sex Drive? (2018)


Do Women Have a Higher Sex Drive? (2018)


Do Women Have a Higher Sex Drive? (2018)


Do Women Have a Higher Sex Drive? (2018)