Tags
Language
Tags
May 2024
Su Mo Tu We Th Fr Sa
28 29 30 1 2 3 4
5 6 7 8 9 10 11
12 13 14 15 16 17 18
19 20 21 22 23 24 25
26 27 28 29 30 31 1

Doctor Who S10E01 (2017)

Posted By: Without
Doctor Who S10E01 (2017)

Doctor Who S10E01 (2017)
WEBRip | MP4 | 704x396 | AVC@756 kb/s | English AAC@125 kb/s | 2 channels | 49 min 39 s | 314 MB
HDTV | AVI | 640x360 | XviD@1328 kb/s | English MP3@128 kb/s | 2 channels | 49 min 40 s | 521 MB
HDTV 720p | MKV | 1280x720 | AVC@2448 kb/s | English AAC@315 kb/s | 2 channels | 49 min 40 s | 982 MB
HDTV 1080p | MKV | 1920x1080 | AVC@10.9 Mb/s | English AAC@128 kb/s | 2 channels | 50 min 23 s | 3.90 GB
Genre: Adventure, Drama, Family

The further adventures of the time traveling alien adventurer and his companions.

IMDB - Top Rated TV #98 | 106 wins & 166 nominations


General
Complete name : Doctor.Who.2005.S10E01.The.Pilot.WEBRip.mp4
Format : MPEG-4
Format profile : Base Media
Codec ID : isom (isom/iso2/avc1/mp41)
File size : 315 MiB
Duration : 49 min 40 s
Overall bit rate : 887 kb/s
Writing application : Lavf57.56.101

Video
ID : 1
Format : AVC
Format/Info : Advanced Video Codec
Format profile : Main@L3
Format settings, CABAC : Yes
Format settings, ReFrames : 4 frames
Format settings, GOP : M=8, N=96
Codec ID : avc1
Codec ID/Info : Advanced Video Coding
Duration : 49 min 40 s
Bit rate : 756 kb/s
Width : 704 pixels
Height : 396 pixels
Display aspect ratio : 16:9
Frame rate mode : Constant
Frame rate : 25.000 FPS
Standard : Component
Color space : YUV
Chroma subsampling : 4:2:0
Bit depth : 8 bits
Scan type : Progressive
Bits/(Pixel*Frame) : 0.109
Stream size : 269 MiB (85%)
Color range : Limited
Color primaries : BT.709
Transfer characteristics : BT.709
Matrix coefficients : BT.709

Audio
ID : 2
Format : AAC
Format/Info : Advanced Audio Codec
Format profile : LC
Codec ID : 40
Duration : 49 min 39 s
Bit rate mode : Constant
Bit rate : 125 kb/s
Channel(s) : 2 channels
Channel positions : Front: L R
Sampling rate : 48.0 kHz
Frame rate : 46.875 FPS (1024 spf)
Compression mode : Lossy
Stream size : 44.6 MiB (14%)
Language : English
Default : Yes
Alternate group : 1

General
Complete name : Doctor.Who.2005.S10E01.XviD-AFG\Doctor.Who.2005.S10E01.XviD-AFG.avi
Format : AVI
Format/Info : Audio Video Interleave
File size : 522 MiB
Duration : 49 min 40 s
Overall bit rate : 1 469 kb/s
Writing application : Lavf57.36.100

Video
ID : 0
Format : xvid
Codec ID : xvid
Duration : 49 min 40 s
Bit rate : 1 328 kb/s
Width : 640 pixels
Height : 360 pixels
Display aspect ratio : 16:9
Frame rate : 25.000 FPS
Scan type : Progressive
Bits/(Pixel*Frame) : 0.231
Stream size : 472 MiB (90%)

Audio
ID : 1
Format : MPEG Audio
Format version : Version 1
Format profile : Layer 3
Mode : Joint stereo
Mode extension : MS Stereo
Codec ID : 55
Codec ID/Hint : MP3
Duration : 49 min 40 s
Bit rate mode : Constant
Bit rate : 128 kb/s
Channel(s) : 2 channels
Sampling rate : 48.0 kHz
Compression mode : Lossy
Stream size : 45.5 MiB (9%)
Alignment : Aligned on interleaves
Interleave, duration : 24 ms (0.60 video frame)
Interleave, preload duration : 24 ms

General
Complete name : Doctor.Who.2005.S10E01.720p.HDTV.x264-MTB\doctor.who.2005.s10e01.720p.hdtv.x264-mtb.mkv
Format : Matroska
Format version : Version 4 / Version 2
File size : 983 MiB
Duration : 49 min 40 s
Overall bit rate : 2 766 kb/s
Encoded date : UTC 2010-02-22 21:41:29
Writing application : no_variable_data
Writing library : no_variable_data

Video
ID : 1
Format : AVC
Format/Info : Advanced Video Codec
Format profile : High@L4.1
Format settings, CABAC : Yes
Format settings, ReFrames : 5 frames
Codec ID : V_MPEG4/ISO/AVC
Duration : 49 min 40 s
Width : 1 280 pixels
Height : 720 pixels
Display aspect ratio : 16:9
Frame rate mode : Constant
Frame rate : 25.000 FPS
Color space : YUV
Chroma subsampling : 4:2:0
Bit depth : 8 bits
Scan type : Progressive
Writing library : x264 core 148 r2762 90a61ec
Encoding settings : cabac=1 / ref=5 / deblock=1:0:0 / analyse=0x3:0x113 / me=hex / subme=8 / psy=1 / psy_rd=1.00:0.00 / mixed_ref=1 / me_range=16 / chroma_me=1 / trellis=2 / 8x8dct=1 / cqm=0 / deadzone=21,11 / fast_pskip=1 / chroma_qp_offset=-2 / threads=12 / lookahead_threads=2 / sliced_threads=0 / nr=0 / decimate=1 / interlaced=0 / bluray_compat=0 / constrained_intra=0 / bframes=3 / b_pyramid=2 / b_adapt=1 / b_bias=0 / direct=3 / weightb=1 / open_gop=0 / weightp=2 / keyint=250 / keyint_min=25 / scenecut=40 / intra_refresh=0 / rc_lookahead=50 / rc=crf / mbtree=1 / crf=18.0 / qcomp=0.60 / qpmin=0 / qpmax=69 / qpstep=4 / ip_ratio=1.40 / aq=1:1.00
Language : English
Default : Yes
Forced : No
Color range : Limited
Matrix coefficients : BT.709

Audio
ID : 2
Format : AAC
Format/Info : Advanced Audio Codec
Format profile : LC
Codec ID : A_AAC
Duration : 49 min 40 s
Channel(s) : 6 channels
Channel positions : Front: L C R, Side: L R, LFE
Sampling rate : 48.0 kHz
Frame rate : 46.875 FPS (1024 spf)
Compression mode : Lossy
Default : Yes
Forced : No

General
Format : MPEG-4
Format profile : Base Media
Codec ID : isom (isom/iso2/avc1/mp41)
File size : 3.90 GiB
Duration : 50 min 23 s
Overall bit rate mode : Variable
Overall bit rate : 11.1 Mb/s
Performer : WinX HD Video Converter Deluxe
Writing application : Lavf55.48.100

Video
ID : 1
Format : AVC
Format/Info : Advanced Video Codec
Format profile : Baseline@L3
Format settings, CABAC : No
Format settings, ReFrames : 2 frames
Codec ID : avc1
Codec ID/Info : Advanced Video Coding
Duration : 50 min 23 s
Bit rate : 10.9 Mb/s
Width : 1 920 pixels
Height : 1 080 pixels
Display aspect ratio : 16:9
Frame rate mode : Constant
Frame rate : 25.000 FPS
Color space : YUV
Chroma subsampling : 4:2:0
Bit depth : 8 bits
Scan type : Progressive
Bits/(Pixel*Frame) : 0.211
Stream size : 3.85 GiB (99%)
Writing library : x264 core 142
Encoding settings : cabac=0 / ref=2 / deblock=1:0:0 / analyse=0x1:0x11 / me=dia / subme=5 / psy=1 / psy_rd=1.00:0.00 / mixed_ref=1 / me_range=16 / chroma_me=1 / trellis=2 / 8x8dct=0 / cqm=0 / deadzone=21,11 / fast_pskip=1 / chroma_qp_offset=0 / threads=6 / lookahead_threads=1 / sliced_threads=0 / nr=0 / decimate=1 / interlaced=0 / bluray_compat=0 / constrained_intra=0 / bframes=0 / weightp=0 / keyint=200 / keyint_min=25 / scenecut=40 / intra_refresh=0 / rc_lookahead=40 / rc=crf / mbtree=1 / crf=16.0 / qcomp=0.60 / qpmin=5 / qpmax=20 / qpstep=4 / vbv_maxrate=8000 / vbv_bufsize=18350 / crf_max=0.0 / nal_hrd=none / filler=0 / ip_ratio=1.41 / aq=1:1.00

Audio
ID : 2
Format : AAC
Format/Info : Advanced Audio Codec
Format profile : LC
Codec ID : 40
Duration : 50 min 23 s
Bit rate mode : Variable
Bit rate : 128 kb/s
Maximum bit rate : 8 000 kb/s
Channel(s) : 2 channels
Channel positions : Front: L R
Sampling rate : 44.1 kHz
Frame rate : 43.066 FPS (1024 spf)
Compression mode : Lossy
Stream size : 46.1 MiB (1%)
Language : English
Default : Yes
Alternate group : 1


WEBRip Screenshots

Doctor Who S10E01 (2017)

Doctor Who S10E01 (2017)

Doctor Who S10E01 (2017)


HDTV Screenshots

Doctor Who S10E01 (2017)

Doctor Who S10E01 (2017)

Doctor Who S10E01 (2017)


HDTV 720p Screenshots

Doctor Who S10E01 (2017)

Doctor Who S10E01 (2017)

Doctor Who S10E01 (2017)


HDTV 1080p Screenshots

Doctor Who S10E01 (2017)

Doctor Who S10E01 (2017)

Doctor Who S10E01 (2017)


Come Visit My Blog (•‿•)