N.G. - Drain the Oceans Series 1: Lost Worlds of the Mediterranean (2018)

Posted By: notbanned
720p (HD) / HDTV
N.G. - Drain the Oceans Series 1: Lost Worlds of the Mediterranean (2018)

N.G. - Drain the Oceans Series 1: Lost Worlds of the Mediterranean (2018)
HDTV | 1280x720 | .MP4/AVC @ 3200 Kbps | 45 min 59 s | 1.08 GiB
Audio: English AAC 160 kbps, 2 channels | Subs: English
Genre: Documentary

In ancient times, the Mediterranean was home to some of the greatest civilizations the world has ever seen. Scientific data, combined with computer graphics, can drain the sea to unlock mysteries about the rise and fall of the Minoans, the Greeks, the Carthaginians and the mighty Romans, while unveiling the powerful natural forces at work in this unique region.

General
Complete name : Drain.the.Oceans.Series.1.Lost.Worlds.of.the.Mediterranean.720p.mp4
Format : MPEG-4
Format profile : Base Media
Codec ID : isom (isom)
File size : 1.08 GiB
Duration : 45 min 59 s
Overall bit rate mode : Variable
Overall bit rate : 3 364 kb/s

Video
ID : 1
Format : AVC
Format/Info : Advanced Video Codec
Format profile : High@L4.1
Format settings, CABAC : Yes
Format settings, ReFrames : 4 frames
Codec ID : avc1
Codec ID/Info : Advanced Video Coding
Duration : 45 min 59 s
Bit rate : 3 200 kb/s
Maximum bit rate : 13.9 Mb/s
Width : 1 280 pixels
Height : 720 pixels
Display aspect ratio : 16:9
Frame rate mode : Constant
Frame rate : 29.970 (30000/1001) FPS
Color space : YUV
Chroma subsampling : 4:2:0
Bit depth : 8 bits
Scan type : Progressive
Bits/(Pixel*Frame) : 0.116
Stream size : 1.03 GiB (95%)
Encoding settings : cabac=1 / ref=1 / deblock=1:0:0 / analyse=0x3:0x113 / me=hex / subme=2 / psy=1 / psy_rd=1.00:0.00 / mixed_ref=0 / me_range=16 / chroma_me=1 / trellis=0 / 8x8dct=1 / cqm=0 / deadzone=21,11 / fast_pskip=1 / chroma_qp_offset=0 / threads=6 / lookahead_threads=2 / sliced_threads=0 / nr=0 / decimate=1 / interlaced=0 / bluray_compat=0 / constrained_intra=0 / bframes=3 / b_pyramid=2 / b_adapt=1 / b_bias=0 / direct=1 / weightb=1 / open_gop=0 / weightp=1 / keyint=300 / keyint_min=30 / scenecut=40 / intra_refresh=0 / rc_lookahead=10 / rc=abr / mbtree=1 / bitrate=3200 / ratetol=1.0 / qcomp=0.60 / qpmin=0 / qpmax=69 / qpstep=4 / vbv_maxrate=62500 / vbv_bufsize=78125 / nal_hrd=none / ip_ratio=1.40 / aq=1:1.00
Encoded date : UTC 2018-06-13 09:53:46
Tagged date : UTC 2018-06-13 11:37:10
Color range : Limited
Color primaries : BT.709
Transfer characteristics : BT.709
Matrix coefficients : BT.709

Audio
ID : 2
Format : AAC
Format/Info : Advanced Audio Codec
Format profile : LC
Codec ID : 40
Duration : 45 min 59 s
Bit rate mode : Variable
Bit rate : 160 kb/s
Maximum bit rate : 187 kb/s
Channel(s) : 2 channels
Channel positions : Front: L R
Sampling rate : 48.0 kHz
Frame rate : 46.875 FPS (1024 spf)
Compression mode : Lossy
Stream size : 52.6 MiB (5%)
Language : English
Encoded date : UTC 2018-06-13 11:37:06
Tagged date : UTC 2018-06-13 11:37:10

Text
ID : 3
Format : Timed Text
Codec ID : tx3g
Duration : 45 min 52 s
Bit rate mode : Variable
Bit rate : 136 b/s
Stream size : 45.8 KiB (0%)
Forced : No
Encoded date : UTC 2018-06-13 11:37:10
Tagged date : UTC 2018-06-13 11:37:10


Screenshots:

N.G. - Drain the Oceans Series 1: Lost Worlds of the Mediterranean (2018)

N.G. - Drain the Oceans Series 1: Lost Worlds of the Mediterranean (2018)

N.G. - Drain the Oceans Series 1: Lost Worlds of the Mediterranean (2018)

N.G. - Drain the Oceans Series 1: Lost Worlds of the Mediterranean (2018)