National Geographic - Drugs Inc: Crystal Meth (2011)

Posted By: ParRus
National Geographic - Drugs Inc: Crystal Meth (2011)

National Geographic - Drugs Inc: Crystal Meth (2011)
SAT-Rip | English | MP4 | 832 x 468 | AVC ~2012 Kbps | 25 fps
AAC | 128 kbps | 48.0 KHz | 2 channels | 00:44:58 | 690 MB
Genre: Documentary

Some call methamphetamine the "Devil's Drug." Often made in less than an hour from a common cold remedy, this powerful stimulant is sweeping across the U.S. and Asia. Follow a raid on a suspected meth lab, stake out a neighborhood pharmacy where addicts attempt to accumulate cold and flu pills, and meet a neuroscientist urgently searching for a cure for addiction. See the dangers of meth and the unexpected physical damages caused by the drug. Also a "cook" producing meth from his home, while neglecting 2 year-old son, is busted by the Drug Task Force Some people take meth because of the long-lasting high that it gives. Methamphetamine causes numerous neurotransmitters to be released in the brain, producing a sense of euphoria that may last as long as 12 hours, depending on how the drug was taken.
General
Complete name : National.GeographicDrugs.Inc.Crystal.Meth.mp4
Format : MPEG-4
Format profile : Base Media
Codec ID : isom
File size : 690 MiB
Duration : 44mn 58s
Overall bit rate mode : Variable
Overall bit rate : 2 145 Kbps
Encoded date : UTC 2013-02-10 17:32:01
Tagged date : UTC 2013-02-10 17:32:01
Writing application : Lavf51.12.1
Video #1
ID : 1
Format : AVC
Format/Info : Advanced Video Codec
Format profile : High@L3.0
Format settings, CABAC : No
Format settings, ReFrames : 1 frame
Format settings, GOP : M=1, N=12
Codec ID : avc1
Codec ID/Info : Advanced Video Coding
Duration : 44mn 58s
Bit rate : 2 012 Kbps
Width : 832 pixels
Height : 468 pixels
Display aspect ratio : 16:9
Frame rate mode : Constant
Frame rate : 25.000 fps
Color space : YUV
Chroma subsampling : 4:2:0
Bit depth : 8 bits
Scan type : Progressive
Bits/(Pixel*Frame) : 0.207
Stream size : 647 MiB (94%)
Encoded date : UTC 2013-02-10 17:32:01
Tagged date : UTC 2013-02-10 17:32:01
Audio #2
ID : 2
Format : AAC
Format/Info : Advanced Audio Codec
Format profile : LC
Codec ID : 40
Duration : 44mn 58s
Bit rate mode : Variable
Bit rate : 128 Kbps
Channel(s) : 2 channels
Channel positions : Front: L R
Sampling rate : 48.0 KHz
Compression mode : Lossy
Stream size : 41.2 MiB (6%)
Encoded date : UTC 2013-02-10 17:32:01
Tagged date : UTC 2013-02-10 17:32:01

ScreenShots

National Geographic - Drugs Inc: Crystal Meth (2011)

National Geographic - Drugs Inc: Crystal Meth (2011)

National Geographic - Drugs Inc: Crystal Meth (2011)

National Geographic - Drugs Inc: Crystal Meth (2011)

For more, Visit my AH-blog

no mirrors please, Follow The Rules