BBC - Drugsland S01E01 (2017)

Posted By: Tavaz
BBC - Drugsland S01E01 (2017)

Drugsland S01E01
WebRip | MOV | 640x480 | English | h264 @ 618 kbps | AAC Stereo @ 128 kb/s | 59:01 | 0.26 GB
Genre: Documentary

Documentary series which travels deep into the worlds of drug users and dealers, revealing in shocking and personal detail the impact of drugs in Bristol.

General
Complete name : ./Drugsland.S01E01.WEB.x264-RBB.mp4
Format : MPEG-4
Format profile : Base Media
Codec ID : isom (isom/iso2/avc1/mp41)
File size : 267 MiB
Duration : 59 min 1 s
Overall bit rate : 633 kb/s
Movie name : Drugsland S01E01
Writing application : Lavf56.32.100
Comment : {name}

Video
ID : 1
Format : AVC
Format/Info : Advanced Video Codec
Format profile : High@L3
Format settings : CABAC / 4 Ref Frames
Format settings, CABAC : Yes
Format settings, RefFrames : 4 frames
Codec ID : avc1
Codec ID/Info : Advanced Video Coding
Duration : 59 min 1 s
Bit rate : 499 kb/s
Width : 640 pixels
Height : 480 pixels
Display aspect ratio : 16:9
Frame rate mode : Variable
Frame rate : 25.000 FPS
Minimum frame rate : 23.256 FPS
Maximum frame rate : 27.027 FPS
Color space : YUV
Chroma subsampling : 4:2:0
Bit depth : 8 bits
Scan type : Progressive
Bits/(Pixel*Frame) : 0.065
Stream size : 210 MiB (79%)
Writing library : x264 core 152 r2851 ba24899
Encoding settings : cabac=1 / ref=1 / deblock=1:0:0 / analyse=0x3:0x113 / me=hex / subme=2 / psy=1 / psy_rd=1.00:0.00 / mixed_ref=0 / me_range=16 / chroma_me=1 / trellis=0 / 8x8dct=1 / cqm=0 / deadzone=21,11 / fast_pskip=1 / chroma_qp_offset=0 / threads=12 / lookahead_threads=3 / sliced_threads=0 / nr=0 / decimate=1 / interlaced=0 / bluray_compat=0 / constrained_intra=0 / bframes=3 / b_pyramid=2 / b_adapt=1 / b_bias=0 / direct=1 / weightb=1 / open_gop=0 / weightp=1 / keyint=250 / keyint_min=25 / scenecut=40 / intra_refresh=0 / rc_lookahead=10 / rc=crf / mbtree=1 / crf=21.0 / qcomp=0.60 / qpmin=0 / qpmax=69 / qpstep=4 / ip_ratio=1.40 / aq=1:1.00

Audio
ID : 2
Format : AAC
Format/Info : Advanced Audio Codec
Format profile : LC
Codec ID : mp4a-40-2
Duration : 59 min 1 s
Bit rate mode : Constant
Bit rate : 128 kb/s
Channel(s) : 2 channels
Channel positions : Front: L R
Sampling rate : 48.0 kHz
Frame rate : 46.875 FPS (1024 SPF)
Compression mode : Lossy
Stream size : 54.1 MiB (20%)
Language : English
Default : Yes
Alternate group : 1





BBC - Drugsland S01E01 (2017)


BBC - Drugsland S01E01 (2017)


BBC - Drugsland S01E01 (2017)


BBC - Drugsland S01E01 (2017)