Tags
Language
Tags

Defiant Love - Drunk in Public (2011)

Posted By: Tutorial
SD / DVDRip IMDb
Defiant Love - Drunk in Public (2011)

Defiant Love - Drunk in Public (2011)
DVDRip | 720 x 540 | .AVI/XviD @ 2313 Kbps | 1 h 23 min | 1.46 GB
Audio: English AC-3 192 Kbps, 2 channels | Subs: None
Genre: Documentary

In 1994, custody officer and writer-filmmaker David J. Sperling began to document the life of Mark David Allen, a 33 year old chronic alcoholic in an attempt to help Mark get sober. Over the next 17 years, Sperling put together a cinematic diary of Mark's dark remarkable journey.

General
Complete name : Drunk.in.Public..avi
Format : AVI
Format/Info : Audio Video Interleave
Format profile : OpenDML
File size : 1.46 GiB
Duration : 1 h 23 min
Overall bit rate : 2 518 kb/s
Movie name : UNTITLED.Title1.DVDRip
Writing application : Lavf52.78.4
Original source form/Name : UNTITLED

Video
ID : 0
Format : MPEG-4 Visual
Format profile : Advanced Simple@L5
Format settings : BVOP2
Format settings, BVOP : 2
Format settings, QPel : No
Format settings, GMC : No warppoints
Format settings, Matrix : Default (H.263)
Muxing mode : Packed bitstream
Codec ID : XVID
Codec ID/Hint : XviD
Duration : 1 h 23 min
Bit rate : 2 313 kb/s
Width : 720 pixels
Height : 540 pixels
Display aspect ratio : 4:3
Frame rate : 29.970 (30000/1001) FPS
Original frame rate : 29.970 (29970/1000) FPS
Color space : YUV
Chroma subsampling : 4:2:0
Bit depth : 8 bits
Scan type : Progressive
Compression mode : Lossy
Bits/(Pixel*Frame) : 0.198
Stream size : 1.34 GiB (92%)
Writing library : XviD 1.2.1 (UTC 2008-12-04)

Audio
ID : 1
Format : AC-3
Format/Info : Audio Coding 3
Commercial name : Dolby Digital
Codec ID : 2000
Duration : 1 h 22 min
Bit rate mode : Constant
Bit rate : 192 kb/s
Channel(s) : 2 channels
Channel layout : L R
Sampling rate : 48.0 kHz
Frame rate : 31.250 FPS (1536 SPF)
Compression mode : Lossy
Stream size : 114 MiB (8%)
Alignment : Aligned on interleaves
Interleave, duration : 32 ms (0.96 video frame)
Interleave, preload duration : 32 ms
Service kind : Complete Main
Screenshots

Defiant Love - Drunk in Public (2011)

Defiant Love - Drunk in Public (2011)

Defiant Love - Drunk in Public (2011)

Welcome to my blog - daily update!

Defiant Love - Drunk in Public (2011)