Tags
Language
Tags

Dry Summer (1963)

Posted By: Tavaz
1080p (FullHD) / BDRip IMDb
Dry Summer (1963)

Dry Summer (1963)
BDRip | MKV | 1920x1080 | Türkçe | H264 @ 5760 kbps | AC-3 @ 96 kbps | 1 h 31 min | 3.76 GiB
Subtitles: English
Genre: Drama

A scheming tobacco farmer sets out to ruin his competition by diverting the local water to his own property.

230f6c0b9cafaf1755cc96c72c188658.mkv (3.8 GB)



General
Unique ID : 315221584957872843624133731052048085987 (0xED25780DAE5D8361734827FAB963F3E3)
Complete name : ./230f6c0b9cafaf1755cc96c72c188658.mkv
Format : Matroska
Format version : Version 4 / Version 2
File size : 3.76 GiB
Duration : 1 h 31 min
Overall bit rate : 5 858 kb/s
Movie name : Dry.Summer.1963.Criterion.1080p.BluRay.x264-nikt0
Encoded date : UTC 2021-01-20 08:16:29 / UTC 2021-01-18T10:05:20Z
Writing application : mkvmerge v47.0.0 ('Black Flag') 64-bit
Writing library : libebml v1.3.10 + libmatroska v1.5.2 / Lavf57.7.2

Video
ID : 1
Format : AVC
Format/Info : Advanced Video Codec
Format profile : High@L4
Format settings : CABAC / 4 Ref Frames
Format settings, CABAC : Yes
Format settings, RefFrames : 4 frames
Codec ID : V_MPEG4/ISO/AVC
Duration : 1 h 31 min
Bit rate : 5 760 kb/s
Width : 1 920 pixels
Height : 1 080 pixels
Display aspect ratio : 16:9
Frame rate mode : Constant
Frame rate : 23.976 (24000/1001) FPS
Color space : YUV
Chroma subsampling : 4:2:0
Bit depth : 8 bits
Scan type : Progressive
Bits/(Pixel*Frame) : 0.116
Stream size : 3.62 GiB (96%)
Writing library : x264 core 155 r2901 7d0ff22
Encoding settings : cabac=1 / ref=4 / deblock=1:-3:-3 / analyse=0x3:0x133 / me=umh / subme=9 / psy=1 / psy_rd=1.10:0.25 / mixed_ref=1 / me_range=32 / chroma_me=1 / trellis=2 / 8x8dct=1 / cqm=0 / deadzone=6,6 / fast_pskip=1 / chroma_qp_offset=-4 / threads=34 / lookahead_threads=3 / sliced_threads=0 / nr=0 / decimate=1 / interlaced=0 / bluray_compat=0 / constrained_intra=0 / bframes=6 / b_pyramid=2 / b_adapt=2 / b_bias=0 / direct=3 / weightb=1 / open_gop=0 / weightp=2 / keyint=240 / keyint_min=24 / scenecut=40 / intra_refresh=0 / rc_lookahead=40 / rc=2pass / mbtree=1 / bitrate=5760 / ratetol=1.0 / qcomp=0.60 / qpmin=0 / qpmax=69 / qpstep=4 / cplxblur=20.0 / qblur=0.5 / vbv_maxrate=20000 / vbv_bufsize=25000 / nal_hrd=none / filler=0 / ip_ratio=1.40 / aq=1:1.00
Language : English
Default : Yes
Forced : No
Color range : Limited
Color primaries : BT.709
Transfer characteristics : BT.709
Matrix coefficients : BT.709
Statistics Tags Issue : mkvmerge v47.0.0 ('Black Flag') 64-bit 2021-01-20 08:16:29 / mkvmerge v47.0.0 ('Black Flag') 64-bit 2021-01-20 08:16:29 / UTC 2021-01-18T10:05:20Z
FromStats_BitRate : 5759930
FromStats_Duration : 01:31:49.296000000
FromStats_FrameCount : 132091
FromStats_StreamSize : 3966644956

Audio
ID : 2
Format : AC-3
Format/Info : Audio Coding 3
Format settings, Endianness : Big
Codec ID : A_AC3
Duration : 1 h 31 min
Bit rate mode : Constant
Bit rate : 96.0 kb/s
Channel(s) : 1 channel
Channel positions : Front: C
Sampling rate : 48.0 kHz
Frame rate : 31.250 FPS (1536 SPF)
Bit depth : 16 bits
Compression mode : Lossy
Stream size : 63.0 MiB (2%)
Title : Mono
Language : Turkish
Service kind : Complete Main
Default : Yes
Forced : No
Statistics Tags Issue : mkvmerge v47.0.0 ('Black Flag') 64-bit 2021-01-20 08:16:29 / mkvmerge v47.0.0 ('Black Flag') 64-bit 2021-01-20 08:16:29 / UTC 2021-01-18T10:05:20Z
FromStats_BitRate : 96000
FromStats_Duration : 01:31:49.312000000
FromStats_FrameCount : 172166
FromStats_StreamSize : 66111744

Text
ID : 3
Format : UTF-8
Codec ID : S_TEXT/UTF8
Codec ID/Info : UTF-8 Plain Text
Title : Forced
Language : English
Default : Yes
Forced : Yes
Statistics Tags Issue : mkvmerge v47.0.0 ('Black Flag') 64-bit 2021-01-20 08:16:29 / mkvmerge v47.0.0 ('Black Flag') 64-bit 2021-01-20 08:16:29 / UTC 2021-01-18T10:05:20Z
FromStats_BitRate : 39
FromStats_Duration : 01:25:38.504000000
FromStats_FrameCount : 648
FromStats_StreamSize : 25316





Dry Summer (1963)


Dry Summer (1963)


Dry Summer (1963)


Dry Summer (1963)


Dry Summer (1963)