Dudes (1987)

Posted By: Without
Dudes (1987)

Dudes (1987)
BDRip | MKV | 720x404 | AVC@1417 kb/s | English AAC@66.2 kb/s
Subs: English | 1 channel | 1 h 29 min | 954 MB
BDRip 720p | MKV | 1280x720 | AVC@7209 kb/s | English DTS@1509 kb/s
Subs: English | 2 channels | 1 h 29 min | 5.46 GB
BDRip 1080p | MKV | 1920x1080 | AVC@12.4 Mb/s | English DTS@1509 kb/s
Subs: English | 2 channels | 1 h 29 min | 8.74 GB
Genre: Adventure, Comedy

Two punks from the big city, traveling across the country in a Volkswagen bug, embrace the western ethos when they must take revenge against a group of rednecks for killing their friend in this lighthearted road movie. Along the way, they enlist the help of a young woman who runs a wrecking service.



General
Dudes.1987.BDRip.x264-RedBlade\Dudes.1987.BDRip.x264-RedBlade.mkv
Format : Matroska
Format version : Version 2
File size : 954 MiB
Duration : 1 h 29 min
Overall bit rate : 1 486 kb/s
Encoded date : UTC 2017-10-27 13:39:59
Writing application : mkvmerge v17.0.0 ('Be Ur Friend') 64-bit
Writing library : libebml v1.3.5 + libmatroska v1.4.8

Video
ID : 1
Format : AVC
Format/Info : Advanced Video Codec
Format profile : High@L3.1
Format settings, CABAC : Yes
Format settings, ReFrames : 5 frames
Codec ID : V_MPEG4/ISO/AVC
Duration : 1 h 29 min
Bit rate : 1 417 kb/s
Width : 720 pixels
Height : 404 pixels
Display aspect ratio : 16:9
Frame rate mode : Constant
Frame rate : 23.976 (24000/1001) FPS
Color space : YUV
Chroma subsampling : 4:2:0
Bit depth : 8 bits
Scan type : Progressive
Bits/(Pixel*Frame) : 0.203
Stream size : 909 MiB (95%)
Writing library : x264 core 152 r2851 ba24899
Encoding settings : cabac=1 / ref=5 / deblock=1:0:0 / analyse=0x3:0x113 / me=hex / subme=8 / psy=1 / psy_rd=1.00:0.00 / mixed_ref=1 / me_range=16 / chroma_me=1 / trellis=2 / 8x8dct=1 / cqm=0 / deadzone=21,11 / fast_pskip=1 / chroma_qp_offset=-2 / threads=12 / lookahead_threads=2 / sliced_threads=0 / nr=0 / decimate=1 / interlaced=0 / bluray_compat=0 / constrained_intra=0 / bframes=3 / b_pyramid=2 / b_adapt=1 / b_bias=0 / direct=3 / weightb=1 / open_gop=0 / weightp=2 / keyint=240 / keyint_min=23 / scenecut=40 / intra_refresh=0 / rc_lookahead=50 / rc=crf / mbtree=1 / crf=21.0 / qcomp=0.60 / qpmin=10 / qpmax=51 / qpstep=4 / vbv_maxrate=17500 / vbv_bufsize=17500 / crf_max=0.0 / nal_hrd=none / filler=0 / ip_ratio=1.40 / aq=1:1.00
Language : English
Default : Yes
Forced : No
Color range : Limited
Matrix coefficients : BT.709

Audio
ID : 2
Format : AAC
Format/Info : Advanced Audio Codec
Format profile : LC
Codec ID : A_AAC
Duration : 1 h 29 min
Bit rate : 66.2 kb/s
Channel(s) : 1 channel
Channel positions : Front: C
Sampling rate : 48.0 kHz
Frame rate : 46.875 FPS (1024 spf)
Compression mode : Lossy
Delay relative to video : 9 ms
Stream size : 42.7 MiB (4%)
Language : English
Default : Yes
Forced : No

Text #1
ID : 3
Format : UTF-8
Codec ID : S_TEXT/UTF8
Codec ID/Info : UTF-8 Plain Text
Duration : 1 h 20 min
Bit rate : 42 b/s
Count of elements : 864
Stream size : 24.9 KiB (0%)
Title : English
Language : English
Default : No
Forced : No

Text #2
ID : 4
Format : UTF-8
Codec ID : S_TEXT/UTF8
Codec ID/Info : UTF-8 Plain Text
Duration : 1 h 29 min
Bit rate : 49 b/s
Count of elements : 1122
Stream size : 32.1 KiB (0%)
Title : English SDH
Language : English
Default : No
Forced : No

Menu
00:00:00.000 : en:00:00:00.000
00:02:34.071 : en:00:02:34.071
00:06:24.134 : en:00:06:24.134
00:08:21.710 : en:00:08:21.710
00:10:45.728 : en:00:10:45.728
00:13:20.925 : en:00:13:20.925
00:15:31.347 : en:00:15:31.347
00:21:09.602 : en:00:21:09.602
00:24:21.919 : en:00:24:21.919
00:26:15.949 : en:00:26:15.949
00:28:21.658 : en:00:28:21.658
00:30:33.248 : en:00:30:33.248
00:32:26.194 : en:00:32:26.194
00:34:29.693 : en:00:34:29.693
00:36:13.671 : en:00:36:13.671
00:38:57.252 : en:00:38:57.252
00:41:49.716 : en:00:41:49.716
00:43:49.252 : en:00:43:49.252
00:46:35.751 : en:00:46:35.751
00:47:50.951 : en:00:47:50.951
00:49:36.682 : en:00:49:36.682
00:52:18.761 : en:00:52:18.761
00:54:32.686 : en:00:54:32.686
00:56:35.642 : en:00:56:35.642
01:00:11.066 : en:01:00:11.066
01:02:14.898 : en:01:02:14.898
01:07:44.894 : en:01:07:44.894
01:13:09.594 : en:01:13:09.594
01:16:23.871 : en:01:16:23.871
01:21:40.312 : en:01:21:40.312

General
Dudes.1987.720p.BluRay.x264-RedBlade\Dudes.1987.720p.BluRay.x264-RedBlade.mkv
Format : Matroska
Format version : Version 2
File size : 5.46 GiB
Duration : 1 h 29 min
Overall bit rate : 8 716 kb/s
Encoded date : UTC 2017-10-27 13:40:05
Writing application : mkvmerge v17.0.0 ('Be Ur Friend') 64-bit
Writing library : libebml v1.3.5 + libmatroska v1.4.8

Video
ID : 1
Format : AVC
Format/Info : Advanced Video Codec
Format profile : High@L4.1
Format settings, CABAC : Yes
Format settings, ReFrames : 5 frames
Codec ID : V_MPEG4/ISO/AVC
Duration : 1 h 29 min
Bit rate : 7 209 kb/s
Width : 1 280 pixels
Height : 720 pixels
Display aspect ratio : 16:9
Frame rate mode : Constant
Frame rate : 23.976 (24000/1001) FPS
Color space : YUV
Chroma subsampling : 4:2:0
Bit depth : 8 bits
Scan type : Progressive
Bits/(Pixel*Frame) : 0.326
Stream size : 4.52 GiB (83%)
Writing library : x264 core 152 r2851 ba24899
Encoding settings : cabac=1 / ref=5 / deblock=1:-3:-3 / analyse=0x3:0x113 / me=umh / subme=8 / psy=1 / psy_rd=1.00:0.00 / mixed_ref=1 / me_range=16 / chroma_me=1 / trellis=1 / 8x8dct=1 / cqm=0 / deadzone=21,11 / fast_pskip=1 / chroma_qp_offset=-2 / threads=12 / lookahead_threads=2 / sliced_threads=0 / nr=0 / decimate=1 / interlaced=0 / bluray_compat=0 / constrained_intra=0 / bframes=3 / b_pyramid=2 / b_adapt=2 / b_bias=0 / direct=3 / weightb=1 / open_gop=0 / weightp=2 / keyint=240 / keyint_min=24 / scenecut=40 / intra_refresh=0 / rc_lookahead=50 / rc=2pass / mbtree=1 / bitrate=7209 / ratetol=1.0 / qcomp=0.60 / qpmin=0 / qpmax=69 / qpstep=4 / cplxblur=20.0 / qblur=0.5 / vbv_maxrate=62500 / vbv_bufsize=78125 / nal_hrd=none / filler=0 / ip_ratio=1.40 / aq=1:1.00
Language : English
Default : Yes
Forced : No

Audio
ID : 2
Format : DTS
Format/Info : Digital Theater Systems
Mode : 16
Format settings, Endianness : Big
Codec ID : A_DTS
Duration : 1 h 29 min
Bit rate mode : Constant
Bit rate : 1 509 kb/s
Channel(s) : 2 channels
Channel positions : Front: L R
Sampling rate : 48.0 kHz
Frame rate : 93.750 FPS (512 spf)
Bit depth : 24 bits
Compression mode : Lossy
Stream size : 968 MiB (17%)
Language : English
Default : Yes
Forced : No

Text #1
ID : 3
Format : UTF-8
Codec ID : S_TEXT/UTF8
Codec ID/Info : UTF-8 Plain Text
Duration : 1 h 20 min
Bit rate : 42 b/s
Count of elements : 864
Stream size : 24.9 KiB (0%)
Title : English
Language : English
Default : No
Forced : No

Text #2
ID : 4
Format : UTF-8
Codec ID : S_TEXT/UTF8
Codec ID/Info : UTF-8 Plain Text
Duration : 1 h 29 min
Bit rate : 49 b/s
Count of elements : 1122
Stream size : 32.1 KiB (0%)
Title : English SDH
Language : English
Default : No
Forced : No

Menu
00:00:00.000 : en:00:00:00.000
00:02:34.071 : en:00:02:34.071
00:06:24.134 : en:00:06:24.134
00:08:21.710 : en:00:08:21.710
00:10:45.728 : en:00:10:45.728
00:13:20.925 : en:00:13:20.925
00:15:31.347 : en:00:15:31.347
00:21:09.602 : en:00:21:09.602
00:24:21.919 : en:00:24:21.919
00:26:15.949 : en:00:26:15.949
00:28:21.658 : en:00:28:21.658
00:30:33.248 : en:00:30:33.248
00:32:26.194 : en:00:32:26.194
00:34:29.693 : en:00:34:29.693
00:36:13.671 : en:00:36:13.671
00:38:57.252 : en:00:38:57.252
00:41:49.716 : en:00:41:49.716
00:43:49.252 : en:00:43:49.252
00:46:35.751 : en:00:46:35.751
00:47:50.951 : en:00:47:50.951
00:49:36.682 : en:00:49:36.682
00:52:18.761 : en:00:52:18.761
00:54:32.686 : en:00:54:32.686
00:56:35.642 : en:00:56:35.642
01:00:11.066 : en:01:00:11.066
01:02:14.898 : en:01:02:14.898
01:07:44.894 : en:01:07:44.894
01:13:09.594 : en:01:13:09.594
01:16:23.871 : en:01:16:23.871
01:21:40.312 : en:01:21:40.312

General
Dudes.1987.1080p.BluRay.x264-RedBlade\Dudes.1987.1080p.BluRay.x264-RedBlade.mkv
Format : Matroska
Format version : Version 2
File size : 8.74 GiB
Duration : 1 h 29 min
Overall bit rate : 13.9 Mb/s
Encoded date : UTC 2017-10-27 13:40:47
Writing application : mkvmerge v17.0.0 ('Be Ur Friend') 64-bit
Writing library : libebml v1.3.5 + libmatroska v1.4.8

Video
ID : 1
Format : AVC
Format/Info : Advanced Video Codec
Format profile : High@L4.1
Format settings, CABAC : Yes
Format settings, ReFrames : 4 frames
Codec ID : V_MPEG4/ISO/AVC
Duration : 1 h 29 min
Bit rate : 12.4 Mb/s
Width : 1 920 pixels
Height : 1 080 pixels
Display aspect ratio : 16:9
Frame rate mode : Constant
Frame rate : 23.976 (24000/1001) FPS
Color space : YUV
Chroma subsampling : 4:2:0
Bit depth : 8 bits
Scan type : Progressive
Bits/(Pixel*Frame) : 0.250
Stream size : 7.79 GiB (89%)
Writing library : x264 core 152 r2851 ba24899
Encoding settings : cabac=1 / ref=4 / deblock=1:-3:-3 / analyse=0x3:0x113 / me=umh / subme=8 / psy=1 / psy_rd=1.00:0.00 / mixed_ref=1 / me_range=16 / chroma_me=1 / trellis=1 / 8x8dct=1 / cqm=0 / deadzone=21,11 / fast_pskip=1 / chroma_qp_offset=-2 / threads=12 / lookahead_threads=2 / sliced_threads=0 / nr=0 / decimate=1 / interlaced=0 / bluray_compat=0 / constrained_intra=0 / bframes=3 / b_pyramid=2 / b_adapt=2 / b_bias=0 / direct=3 / weightb=1 / open_gop=0 / weightp=2 / keyint=240 / keyint_min=24 / scenecut=40 / intra_refresh=0 / rc_lookahead=50 / rc=2pass / mbtree=1 / bitrate=12446 / ratetol=1.0 / qcomp=0.60 / qpmin=0 / qpmax=69 / qpstep=4 / cplxblur=20.0 / qblur=0.5 / vbv_maxrate=62500 / vbv_bufsize=78125 / nal_hrd=none / filler=0 / ip_ratio=1.40 / aq=1:1.00
Language : English
Default : Yes
Forced : No

Audio
ID : 2
Format : DTS
Format/Info : Digital Theater Systems
Mode : 16
Format settings, Endianness : Big
Codec ID : A_DTS
Duration : 1 h 29 min
Bit rate mode : Constant
Bit rate : 1 509 kb/s
Channel(s) : 2 channels
Channel positions : Front: L R
Sampling rate : 48.0 kHz
Frame rate : 93.750 FPS (512 spf)
Bit depth : 24 bits
Compression mode : Lossy
Stream size : 968 MiB (11%)
Language : English
Default : Yes
Forced : No

Text #1
ID : 3
Format : UTF-8
Codec ID : S_TEXT/UTF8
Codec ID/Info : UTF-8 Plain Text
Duration : 1 h 20 min
Bit rate : 42 b/s
Count of elements : 864
Stream size : 24.9 KiB (0%)
Title : English
Language : English
Default : No
Forced : No

Text #2
ID : 4
Format : UTF-8
Codec ID : S_TEXT/UTF8
Codec ID/Info : UTF-8 Plain Text
Duration : 1 h 29 min
Bit rate : 49 b/s
Count of elements : 1122
Stream size : 32.1 KiB (0%)
Title : English SDH
Language : English
Default : No
Forced : No

Menu
00:00:00.000 : en:00:00:00.000
00:02:34.071 : en:00:02:34.071
00:06:24.134 : en:00:06:24.134
00:08:21.710 : en:00:08:21.710
00:10:45.728 : en:00:10:45.728
00:13:20.925 : en:00:13:20.925
00:15:31.347 : en:00:15:31.347
00:21:09.602 : en:00:21:09.602
00:24:21.919 : en:00:24:21.919
00:26:15.949 : en:00:26:15.949
00:28:21.658 : en:00:28:21.658
00:30:33.248 : en:00:30:33.248
00:32:26.194 : en:00:32:26.194
00:34:29.693 : en:00:34:29.693
00:36:13.671 : en:00:36:13.671
00:38:57.252 : en:00:38:57.252
00:41:49.716 : en:00:41:49.716
00:43:49.252 : en:00:43:49.252
00:46:35.751 : en:00:46:35.751
00:47:50.951 : en:00:47:50.951
00:49:36.682 : en:00:49:36.682
00:52:18.761 : en:00:52:18.761
00:54:32.686 : en:00:54:32.686
00:56:35.642 : en:00:56:35.642
01:00:11.066 : en:01:00:11.066
01:02:14.898 : en:01:02:14.898
01:07:44.894 : en:01:07:44.894
01:13:09.594 : en:01:13:09.594
01:16:23.871 : en:01:16:23.871
01:21:40.312 : en:01:21:40.312


BDRip Screenshots

Dudes (1987)

Dudes (1987)

Dudes (1987)

Dudes (1987)


BDRip 720p Screenshots

Dudes (1987)

Dudes (1987)

Dudes (1987)

Dudes (1987)


BDRip 1080p Screenshots

Dudes (1987)

Dudes (1987)

Dudes (1987)

Dudes (1987)


Come Visit My Blog (•‿•)