Duke Films - The Cars of James Bond (2012)

Posted By: Polik88
Duke Films - The Cars of James Bond (2012)

Duke Films - The Cars of James Bond (2012)
English | MP4 | 832x468 | AVC 1931 Kbps 25.000 fps | AAC 128 Kbps 48.0 khz | 50mn 05s | 691 MB
Genre: Documentary

Stunning, spectacular and eye-catching cars are as much a part of the James Bond legend as Vodka Martinis and the Walther PPK. Since the iconic secret agent hit the silver screen in 1962, and indeed since Ian Fleming's earliest Bond novels, these marvellous machines have been as much stars of the 007 franchise as the actors who have played the role. This fascinating programme pays homage to the incredible vehicles which have wowed Bond fans for generations, from the 4½ litre Bentley Blower of Fleming's books to the awesome 510bhp Aston Martin DBS V12 driven by Daniel Craig in Casino Royale. We count down the 10 most notable Bond cars, examine the role of vehicles in the creation of the 007 legend and consider what the future holds. Experts, enthusiasts, fans and owners give their views, as well as discussing the unforgettable stunts, amazing gadgets and the controversial choices. The Cars of James Bond features contributions from actor, comedian and Young Bond author Charlie Higson, 007 Magazine editor Graham Rye, Cars of the Stars Motor Museum owner Peter Nelson, The Man Who Saved Britain author Simon Winder, stunt coordinator Steve Truglia and many other fans. Join us for the ultimate celebration of The Cars of James Bond. Starring: The Aston Martin DBS V12 (as seen in Casino Royale) The Aston Martin V12 Vanquish (as seen in Die Another Day) The BMW 750iL (as seen in Tomorrow Never Dies) The Aston Martin DBS V8 Vantage Volante (as seen in Living Daylights) The Citroen 2CV (as seen in For Your Eyes Only) The Lotus Esprit S1 (as seen in The Spy Who Loved Me) The AMC Hornet X (as seen in The Man With The Golden Gun) The Aston Martin DB5 (as seen in Goldfinger) The Sunbeam Alpine Series II (as seen in Dr No) The Bentley 4½ Litre Blower (as featured in Ian Fleming's novels)
General
Complete name : The.Cars.of.James.Bond.mp4
Format : MPEG-4
Format profile : Base Media
Codec ID : isom
File size : 692 MiB
Duration : 50mn 5s
Overall bit rate mode : Variable
Overall bit rate : 1 931 Kbps
Encoded date : UTC 2013-02-15 19:33:44
Tagged date : UTC 2013-02-15 19:33:44
Writing application : Lavf51.12.1

Video
ID : 1
Format : AVC
Format/Info : Advanced Video Codec
Format profile : High@L3.0
Format settings, CABAC : No
Format settings, ReFrames : 1 frame
Format settings, GOP : M=1, N=12
Codec ID : avc1
Codec ID/Info : Advanced Video Coding
Duration : 50mn 5s
Bit rate : 1 799 Kbps
Width : 832 pixels
Height : 468 pixels
Display aspect ratio : 16:9
Frame rate mode : Constant
Frame rate : 25.000 fps
Color space : YUV
Chroma subsampling : 4:2:0
Bit depth : 8 bits
Scan type : Progressive
Bits/(Pixel*Frame) : 0.185
Stream size : 645 MiB (93%)
Encoded date : UTC 2013-02-15 19:33:44
Tagged date : UTC 2013-02-15 19:33:44

Audio
ID : 2
Format : AAC
Format/Info : Advanced Audio Codec
Format profile : LC
Codec ID : 40
Duration : 50mn 5s
Bit rate mode : Variable
Bit rate : 127 Kbps
Channel(s) : 2 channels
Channel positions : Front: L R
Sampling rate : 48.0 KHz
Compression mode : Lossy
Stream size : 45.6 MiB (7%)
Encoded date : UTC 2013-02-15 19:33:44
Tagged date : UTC 2013-02-15 19:33:44

Screenshots

Duke Films - The Cars of James Bond (2012)

Duke Films - The Cars of James Bond (2012)

Duke Films - The Cars of James Bond (2012)

no mirrors please, Follow The Rules
Visit Polik88 Blog Here
no password