Dynamite Graffiti (2018)

Posted By: Tavaz
1080p (FullHD) / BDRip IMDb
Dynamite Graffiti (2018)

Dynamite Graffiti (2018)
BDRip | MKV | 1920x1038 | Japanese | H264 @ 7636 kbps | AC-3 @ 640 kbps | 2 h 18 min | 8.06 GiB
Subtitles: Japanese, Chinese, English
Genre: Drama

When Suei was little, his mother had an affair with a young man who lived next door. Suei's mother and the young man killed themselves by using dynamite. After Suei graduated from high school, he worked at a factory before quitting his job. He then went to Tokyo and began working in the erotic magazine industry. Suei eventually became the chief editor of a famous erotic magazine in the 1980's.

Dynamite.Graffiti.2018.1080p.BluRay.DD5.1.x264-PbK-Obfuscated=7cd68c3a9682b22e33011f155109482e7682bc90.part1.rar (4.2 GB)
Dynamite.Graffiti.2018.1080p.BluRay.DD5.1.x264-PbK-Obfuscated=7cd68c3a9682b22e33011f155109482e7682bc90.part2.rar (3.9 GB)



General
Unique ID : 119804920248259368420507124032281777146 (0x5A21969D643DD012DD74A2E6224813FA)
Complete name : ./9132b33d91554f438d3754d5d0adfe76.mkv
Format : Matroska
Format version : Version 4 / Version 2
File size : 8.06 GiB
Duration : 2 h 18 min
Overall bit rate : 8 324 kb/s
Encoded date : UTC 2019-04-28 10:11:30
Writing application : mkvmerge v29.0.0 ('Like It Or Not') 64-bit
Writing library : libebml v1.3.6 + libmatroska v1.4.9

Video
ID : 1
Format : AVC
Format/Info : Advanced Video Codec
Format profile : High@L4.1
Format settings : CABAC / 5 Ref Frames
Format settings, CABAC : Yes
Format settings, RefFrames : 5 frames
Codec ID : V_MPEG4/ISO/AVC
Duration : 2 h 18 min
Bit rate : 7 636 kb/s
Width : 1 920 pixels
Height : 1 038 pixels
Display aspect ratio : 1.85:1
Frame rate mode : Constant
Frame rate : 23.976 (24000/1001) FPS
Color space : YUV
Chroma subsampling : 4:2:0
Bit depth : 8 bits
Scan type : Progressive
Bits/(Pixel*Frame) : 0.160
Stream size : 7.39 GiB (92%)
Writing library : x264 core 157 r2867+103 0d6443f t_mod_Custom_2 [8-bit@all X86_64]
Encoding settings : cabac=1 / ref=5 / deblock=1:-3:-3 / analyse=0x3:0x113 / me=umh / subme=11 / psy=1 / fade_compensate=0.00 / psy_rd=1.00:0.00 / mixed_ref=1 / me_range=48 / chroma_me=1 / trellis=2 / 8x8dct=1 / cqm=0 / deadzone=11,6 / fast_pskip=0 / chroma_qp_offset=-2 / threads=32 / lookahead_threads=5 / sliced_threads=0 / nr=0 / decimate=0 / interlaced=0 / bluray_compat=0 / constrained_intra=0 / fgo=0 / bframes=8 / b_pyramid=2 / b_adapt=2 / b_bias=0 / direct=3 / weightb=1 / open_gop=0 / weightp=2 / keyint=250 / keyint_min=23 / scenecut=40 / intra_refresh=0 / rc_lookahead=60 / rc=crf / mbtree=0 / crf=19.1000 / qcomp=0.60 / qpmin=0:0:0 / qpmax=32:32:32 / qpstep=4 / vbv_maxrate=40000 / vbv_bufsize=30000 / crf_max=0.0 / nal_hrd=none / filler=0 / ip_ratio=1.30 / pb_ratio=1.20 / aq=3:0.80 / aq-sensitivity=10.00 / aq-factor=1.00:1.00:1.00 / aq2=0 / aq3=0
Language : Japanese
Default : Yes
Forced : No
Color range : Limited
Color primaries : BT.709
Transfer characteristics : BT.709
Matrix coefficients : BT.709

Audio
ID : 2
Format : AC-3
Format/Info : Audio Coding 3
Format settings, Endianness : Big
Codec ID : A_AC3
Duration : 2 h 18 min
Bit rate mode : Constant
Bit rate : 640 kb/s
Channel(s) : 6 channels
Channel positions : Front: L C R, Side: L R, LFE
Sampling rate : 48.0 kHz
Frame rate : 31.250 FPS (1536 SPF)
Bit depth : 16 bits
Compression mode : Lossy
Stream size : 634 MiB (8%)
Language : Japanese
Service kind : Complete Main
Default : Yes
Forced : No

Text #1
ID : 3
Format : PGS
Muxing mode : zlib
Codec ID : S_HDMV/PGS
Codec ID/Info : Picture based subtitle format used on BDs/HD-DVDs
Duration : 2 h 14 min
Bit rate : 19.7 kb/s
Count of elements : 2670
Stream size : 19.0 MiB (0%)
Title : CHS
Language : Chinese
Default : Yes
Forced : No

Text #2
ID : 4
Format : PGS
Muxing mode : zlib
Codec ID : S_HDMV/PGS
Codec ID/Info : Picture based subtitle format used on BDs/HD-DVDs
Duration : 2 h 14 min
Bit rate : 20.5 kb/s
Count of elements : 2670
Stream size : 19.7 MiB (0%)
Title : CHT
Language : Chinese
Default : No
Forced : No

Text #3
ID : 5
Format : PGS
Muxing mode : zlib
Codec ID : S_HDMV/PGS
Codec ID/Info : Picture based subtitle format used on BDs/HD-DVDs
Duration : 2 h 17 min
Bit rate : 27.5 kb/s
Count of elements : 2909
Stream size : 27.1 MiB (0%)
Title : ENG
Language : English
Default : No
Forced : No

Text #4
ID : 6
Format : PGS
Muxing mode : zlib
Codec ID : S_HDMV/PGS
Codec ID/Info : Picture based subtitle format used on BDs/HD-DVDs
Duration : 2 h 18 min
Bit rate : 41.8 kb/s
Count of elements : 4685
Stream size : 41.3 MiB (1%)
Title : JPN
Language : Japanese
Default : No
Forced : No

Menu
00:00:00.000 : en:第 01 章
00:06:48.742 : en:第 02 章
00:07:35.789 : en:第 03 章
00:16:47.006 : en:第 04 章
00:27:27.437 : en:第 05 章
00:37:31.082 : en:第 06 章
00:45:52.166 : en:第 07 章
00:53:57.568 : en:第 08 章
00:59:02.581 : en:第 09 章
01:08:21.472 : en:第 10 章
01:13:59.477 : en:第 11 章
01:27:40.881 : en:第 12 章
01:38:05.421 : en:第 13 章
01:44:40.566 : en:第 14 章
01:52:51.390 : en:第 15 章
01:58:47.329 : en:第 16 章
02:09:13.871 : en:第 17 章
02:14:07.539 : en:第 18 章
02:18:19.625 : en:第 19 章





Dynamite Graffiti (2018)


Dynamite Graffiti (2018)


Dynamite Graffiti (2018)


Dynamite Graffiti (2018)


Dynamite Graffiti (2018)