Echo in the Canyon (2019)

Posted By: Tavaz
1080p (FullHD) / BDRip IMDb
Echo in the Canyon (2019)

Echo in the Canyon (2019)
BDRip | MKV | 1920x1080 | English | H264 @ 5760 kbps | AC-3 @ 448 kbps | 1 h 22 min | 3.56 GiB
Subtitles: English
Genre: Documentary, Music

A look at the roots of the historic music scene in L.A.'s Laurel Canyon featuring the music of iconic groups such as The Byrds, The Beach Boys, Buffalo Springfield, and The Mamas and the Papas


519bfdf0669b440ea6fbacab390438b5.mkv (3.6 GB)



General
Unique ID : 58739409670963748185567615373895725214 (0x2C30CC7E29B707F01D44CD315FDEF09E)
Complete name : ./519bfdf0669b440ea6fbacab390438b5.mkv
Format : Matroska
Format version : Version 4 / Version 2
File size : 3.56 GiB
Duration : 1 h 22 min
Overall bit rate : 6 202 kb/s
Movie name : Echo.in.the.Canyon.2019.1080p.BluRay.x264-nikt0
Encoded date : UTC 2019-09-18 02:57:07 / UTC 2019-09-17T07:31:21Z
Writing application : mkvmerge v35.0.0 ('All The Love In The World') 64-bit
Writing library : libebml v1.3.9 + libmatroska v1.5.2 / Lavf57.7.2

Video
ID : 1
Format : AVC
Format/Info : Advanced Video Codec
Format profile : High@L4
Format settings : CABAC / 4 Ref Frames
Format settings, CABAC : Yes
Format settings, RefFrames : 4 frames
Codec ID : V_MPEG4/ISO/AVC
Duration : 1 h 22 min
Bit rate : 5 760 kb/s
Width : 1 920 pixels
Height : 1 080 pixels
Display aspect ratio : 16:9
Frame rate mode : Constant
Frame rate : 23.976 (24000/1001) FPS
Color space : YUV
Chroma subsampling : 4:2:0
Bit depth : 8 bits
Scan type : Progressive
Bits/(Pixel*Frame) : 0.116
Stream size : 3.23 GiB (91%)
Writing library : x264 core 155 r2901 7d0ff22
Encoding settings : cabac=1 / ref=4 / deblock=1:-3:-3 / analyse=0x3:0x133 / me=umh / subme=9 / psy=1 / psy_rd=1.10:0.25 / mixed_ref=1 / me_range=32 / chroma_me=1 / trellis=2 / 8x8dct=1 / cqm=0 / deadzone=6,6 / fast_pskip=1 / chroma_qp_offset=-4 / threads=24 / lookahead_threads=2 / sliced_threads=0 / nr=0 / decimate=1 / interlaced=0 / bluray_compat=0 / constrained_intra=0 / bframes=6 / b_pyramid=2 / b_adapt=2 / b_bias=0 / direct=3 / weightb=1 / open_gop=0 / weightp=2 / keyint=240 / keyint_min=24 / scenecut=40 / intra_refresh=0 / rc_lookahead=40 / rc=2pass / mbtree=1 / bitrate=5760 / ratetol=1.0 / qcomp=0.60 / qpmin=0 / qpmax=69 / qpstep=4 / cplxblur=20.0 / qblur=0.5 / vbv_maxrate=20000 / vbv_bufsize=25000 / nal_hrd=none / filler=0 / ip_ratio=1.40 / aq=1:1.00
Default : Yes
Forced : No
Color range : Limited
Color primaries : BT.709
Transfer characteristics : BT.709
Matrix coefficients : BT.709
Statistics Tags Issue : mkvmerge v35.0.0 ('All The Love In The World') 64-bit 2019-09-18 02:57:07 / mkvmerge v35.0.0 ('All The Love In The World') 64-bit 2019-09-18 02:57:07 / UTC 2019-09-17T07:31:21Z
FromStats_BitRate : 5751609
FromStats_Duration : 01:22:14.597000000
FromStats_FrameCount : 118312
FromStats_StreamSize : 3547734489

Audio
ID : 2
Format : AC-3
Format/Info : Audio Coding 3
Format settings, Endianness : Big
Codec ID : A_AC3
Duration : 1 h 22 min
Bit rate mode : Constant
Bit rate : 448 kb/s
Channel(s) : 6 channels
Channel positions : Front: L C R, Side: L R, LFE
Sampling rate : 48.0 kHz
Frame rate : 31.250 FPS (1536 SPF)
Bit depth : 16 bits
Compression mode : Lossy
Stream size : 264 MiB (7%)
Title : Surround
Language : English
Service kind : Complete Main
Default : Yes
Forced : No
Statistics Tags Issue : mkvmerge v35.0.0 ('All The Love In The World') 64-bit 2019-09-18 02:57:07 / mkvmerge v35.0.0 ('All The Love In The World') 64-bit 2019-09-18 02:57:07 / UTC 2019-09-17T07:31:21Z
FromStats_BitRate : 448000
FromStats_Duration : 01:22:14.592000000
FromStats_FrameCount : 154206
FromStats_StreamSize : 276337152

Text
ID : 3
Format : UTF-8
Codec ID : S_TEXT/UTF8
Codec ID/Info : UTF-8 Plain Text
Language : English
Default : Yes
Forced : No
Statistics Tags Issue : mkvmerge v35.0.0 ('All The Love In The World') 64-bit 2019-09-18 02:57:07 / mkvmerge v35.0.0 ('All The Love In The World') 64-bit 2019-09-18 02:57:07 / UTC 2019-09-17T07:31:21Z
FromStats_BitRate : 98
FromStats_Duration : 01:20:52.973000000
FromStats_FrameCount : 1503
FromStats_StreamSize : 59934

Menu
00:00:00.000 : :Chapter 1
00:06:40.734 : :Chapter 2
00:14:12.018 : :Chapter 3
00:21:55.356 : :Chapter 4
00:27:13.632 : :Chapter 5
00:33:24.044 : :Chapter 6
00:41:22.021 : :Chapter 7
00:49:34.388 : :Chapter 8
00:56:21.211 : :Chapter 9
01:02:58.775 : :Chapter 10
01:10:00.738 : :Chapter 11
01:19:29.598 : :Chapter 12





Echo in the Canyon (2019)


Echo in the Canyon (2019)


Echo in the Canyon (2019)


Echo in the Canyon (2019)


Echo in the Canyon (2019)