Tags
Language
Tags

Edward II (1991) [British Film Institute]

Posted By: RSU75
1080p (FullHD) / BDRip IMDb
Edward II (1991) [British Film Institute]

Edward II (1991) [British Film Institute]
BDRip | MKV | AVC, 1920x1080, ~ 4.1 Mbps | 1hr 30mn | 2.87 GB | English: AC3, 2 ch, 448 kbps
Subtitles: English
Genre: Drama, History, Romance



Director: Derek Jarman
Writers: Christopher Marlowe (play), Derek Jarman (screenplay)
Stars: Steven Waddington, Kevin Collins, Andrew Tiernan

Film Distributor: BFI (British Film Institute)
Box set: Jarman Volume 2: 1987-1994

In this Derek Jarman version of Christopher Marlowe's Elizabethan drama, in modern costumes and settings, Plantagenet king Edward II hands the power-craving nobility the perfect excuse by taking as lover besides his diplomatic wife, the French princess Isabel, not an acceptable lady at court but the ambitious Piers Gaveston, who uses his favor in bed even to wield political influence - the stage is set for a palace revolt which sends the gay pair from the throne to a terminal torture dungeon.

Extras:
- None




General
Unique ID : 208189822209832128833413108669741226796 (0x9C9FE6B9B332DDB5BBBD21389DF35B2C)
Complete name : F:\EdwardII.1991.BFI.1p\EdwardII.1991.BFI.1p.mkv
Format : Matroska
Format version : Version 4 / Version 2
File size : 2.87 GiB
Duration : 1 h 30 min
Overall bit rate : 4 553 kb/s
Movie name : Release RSU75
Encoded date : UTC 2019-11-18 11:44:19
Writing application : mkvmerge v6.6.0 ('The Edge Of The In Between') built on Dec 1 2013 17:55:00
Writing library : libebml v1.3.0 + libmatroska v1.4.1

Video
ID : 1
Format : AVC
Format/Info : Advanced Video Codec
Format profile : High@L4.1
Format settings : CABAC / 4 Ref Frames
Format settings, CABAC : Yes
Format settings, ReFrames : 4 frames
Codec ID : V_MPEG4/ISO/AVC
Duration : 1 h 30 min
Bit rate : 4 100 kb/s
Width : 1 920 pixels
Height : 1 080 pixels
Display aspect ratio : 16:9
Frame rate mode : Constant
Frame rate : 23.976 (23976/1000) FPS
Color space : YUV
Chroma subsampling : 4:2:0
Bit depth : 8 bits
Scan type : Progressive
Bits/(Pixel*Frame) : 0.082
Stream size : 2.53 GiB (88%)
Writing library : x264 core 148 r2643 5c65704
Encoding settings : cabac=1 / ref=4 / deblock=1:0:0 / analyse=0x3:0x113 / me=umh / subme=8 / psy=1 / psy_rd=1.00:0.00 / mixed_ref=1 / me_range=24 / chroma_me=1 / trellis=1 / 8x8dct=1 / cqm=0 / deadzone=21,11 / fast_pskip=1 / chroma_qp_offset=-2 / threads=3 / lookahead_threads=1 / sliced_threads=0 / nr=0 / decimate=1 / interlaced=0 / bluray_compat=0 / constrained_intra=0 / bframes=3 / b_pyramid=0 / b_adapt=2 / b_bias=0 / direct=3 / weightb=1 / open_gop=0 / weightp=2 / keyint=250 / keyint_min=25 / scenecut=40 / intra_refresh=0 / rc_lookahead=40 / rc=abr / mbtree=1 / bitrate=4100 / ratetol=1.0 / qcomp=0.60 / qpmin=10 / qpmax=51 / qpstep=4 / ip_ratio=1.41 / aq=1:1.00
Language : English
Default : Yes
Forced : No

Audio
ID : 2
Format : AC-3
Format/Info : Audio Coding 3
Commercial name : Dolby Digital
Codec ID : A_AC3
Duration : 1 h 30 min
Bit rate mode : Constant
Bit rate : 448 kb/s
Channel(s) : 2 channels
Channel layout : L R
Sampling rate : 44.1 kHz
Frame rate : 28.711 FPS (1536 SPF)
Bit depth : 16 bits
Compression mode : Lossy
Stream size : 289 MiB (10%)
Language : English
Service kind : Complete Main
Default : Yes
Forced : No

Text
ID : 3
Format : PGS
Muxing mode : zlib
Codec ID : S_HDMV/PGS
Codec ID/Info : Picture based subtitle format used on BDs/HD-DVDs
Language : English
Default : Yes
Forced : No

Menu
00:00:00.000 : en:Chapter 01
00:09:42.498 : en:Chapter 02
00:17:05.024 : en:Chapter 03
00:27:33.777 : en:Chapter 04
00:34:05.084 : en:Chapter 05
00:45:18.090 : en:Chapter 06
00:54:14.209 : en:Chapter 07
01:02:37.336 : en:Chapter 08
01:12:46.403 : en:Chapter 09
01:20:48.718 : en:Chapter 10
01:27:40.588 : en:Chapter 11






General
Unique ID : 249427823255466100227643370168232862557 (0xBBA60D270CC0C530BA11C9E6AEC6635D)
Complete name : F:\EdwardII.1991.BFI.7p\EdwardII.1991.BFI.7p.mkv
Format : Matroska
Format version : Version 4 / Version 2
File size : 1.99 GiB
Duration : 1 h 30 min
Overall bit rate : 3 166 kb/s
Movie name : Release RSU75
Encoded date : UTC 2019-11-18 11:33:48
Writing application : mkvmerge v6.6.0 ('The Edge Of The In Between') built on Dec 1 2013 17:55:00
Writing library : libebml v1.3.0 + libmatroska v1.4.1

Video
ID : 1
Format : AVC
Format/Info : Advanced Video Codec
Format profile : High@L4.1
Format settings : CABAC / 4 Ref Frames
Format settings, CABAC : Yes
Format settings, ReFrames : 4 frames
Codec ID : V_MPEG4/ISO/AVC
Duration : 1 h 30 min
Bit rate : 2 900 kb/s
Width : 1 280 pixels
Height : 720 pixels
Display aspect ratio : 16:9
Frame rate mode : Constant
Frame rate : 23.976 (23976/1000) FPS
Color space : YUV
Chroma subsampling : 4:2:0
Bit depth : 8 bits
Scan type : Progressive
Bits/(Pixel*Frame) : 0.131
Stream size : 1.79 GiB (90%)
Writing library : x264 core 148 r2643 5c65704
Encoding settings : cabac=1 / ref=4 / deblock=1:0:0 / analyse=0x3:0x113 / me=umh / subme=8 / psy=1 / psy_rd=1.00:0.00 / mixed_ref=1 / me_range=24 / chroma_me=1 / trellis=1 / 8x8dct=1 / cqm=0 / deadzone=21,11 / fast_pskip=1 / chroma_qp_offset=-2 / threads=3 / lookahead_threads=1 / sliced_threads=0 / nr=0 / decimate=1 / interlaced=0 / bluray_compat=0 / constrained_intra=0 / bframes=3 / b_pyramid=0 / b_adapt=2 / b_bias=0 / direct=3 / weightb=1 / open_gop=0 / weightp=2 / keyint=250 / keyint_min=25 / scenecut=40 / intra_refresh=0 / rc_lookahead=40 / rc=abr / mbtree=1 / bitrate=2900 / ratetol=1.0 / qcomp=0.60 / qpmin=10 / qpmax=51 / qpstep=4 / ip_ratio=1.41 / aq=1:1.00
Language : English
Default : Yes
Forced : No

Audio
ID : 2
Format : AC-3
Format/Info : Audio Coding 3
Commercial name : Dolby Digital
Codec ID : A_AC3
Duration : 1 h 30 min
Bit rate mode : Constant
Bit rate : 256 kb/s
Channel(s) : 2 channels
Channel layout : L R
Sampling rate : 44.1 kHz
Frame rate : 28.711 FPS (1536 SPF)
Bit depth : 16 bits
Compression mode : Lossy
Stream size : 165 MiB (8%)
Language : English
Service kind : Complete Main
Default : Yes
Forced : No

Text
ID : 3
Format : PGS
Muxing mode : zlib
Codec ID : S_HDMV/PGS
Codec ID/Info : Picture based subtitle format used on BDs/HD-DVDs
Language : English
Default : Yes
Forced : No

Menu
00:00:00.000 : en:Chapter 01
00:09:42.498 : en:Chapter 02
00:17:05.024 : en:Chapter 03
00:27:33.777 : en:Chapter 04
00:34:05.084 : en:Chapter 05
00:45:18.090 : en:Chapter 06
00:54:14.209 : en:Chapter 07
01:02:37.336 : en:Chapter 08
01:12:46.403 : en:Chapter 09
01:20:48.718 : en:Chapter 10
01:27:40.588 : en:Chapter 11




Screenshots 1080p (click to enlarge to original size):

Edward II (1991) [British Film Institute]

Edward II (1991) [British Film Institute]

Edward II (1991) [British Film Institute]





–––––––––––––––––––––––––––––––––––––––-