Tags
Language
Tags

Elevator to the Gallows / Ascenseur pour l'échafaud (1958)

Posted By: RSU75
SD / DVDRip IMDb
Elevator to the Gallows / Ascenseur pour l'échafaud (1958)

Elevator to the Gallows / Ascenseur pour l'échafaud (1958) [Criterion Collection, Spine #335, Reissue]
DVDRip | MKV | 1hr 31mn | AVC, ~1,6 Mbps | 664x480 | 1.27 GB
French: Dolby AC3, 1 ch, 384 kbps
Subtitles: English
Genre: Crime, Drama, Thriller

Criterion.com


Director: Louis Malle
Writers: Roger Nimier (adaptation), Louis Malle (adaptation)
Stars: Jeanne Moreau, Maurice Ronet, Georges Poujouly

For his feature debut, twenty-four-year-old Louis Malle brought together a mesmerizing performance by Jeanne Moreau, evocative cinematography by Henri Decaë, and a now legendary jazz score by Miles Davis. Taking place over the course of one restless Paris night, Malle’s richly atmospheric crime thriller stars Moreau and Maurice Ronet as lovers whose plan to murder her husband (his boss) goes awry, setting off a chain of events that seals their fate. A career touchstone for its director and female star, Elevator to the Gallows was an astonishing beginning to Malle’s eclectic body of work, and it established Moreau as one of the most captivating actors ever to grace the screen.




General
Unique ID : 242142325981303165481658307020713938235 (0xB62AEA67747542B08645EC8B31D0CD3B)
Complete name : M:\ElevatorToTheGallows.58.Cr.Dr.Reissue\ElevatorToTheGallows.58.Cr.Dr.Reissue.mkv
Format : Matroska
Format version : Version 4 / Version 2
File size : 1.27 GiB
Duration : 1 h 31 min
Overall bit rate : 1 982 kb/s
Movie name : Release RSU75
Encoded date : UTC 2018-03-20 12:16:17
Writing application : mkvmerge v6.6.0 ('The Edge Of The In Between') built on Dec 1 2013 17:55:00
Writing library : libebml v1.3.0 + libmatroska v1.4.1

Video
ID : 1
Format : AVC
Format/Info : Advanced Video Codec
Format profile : High@L3
Format settings : CABAC / 4 Ref Frames
Format settings, CABAC : Yes
Format settings, RefFrames : 4 frames
Codec ID : V_MPEG4/ISO/AVC
Duration : 1 h 31 min
Bit rate : 1 600 kb/s
Width : 664 pixels
Height : 480 pixels
Display aspect ratio : 16:10
Original display aspect rat : 16:10
Frame rate mode : Constant
Frame rate : 23.976 (23976/1000) FPS
Color space : YUV
Chroma subsampling : 4:2:0
Bit depth : 8 bits
Scan type : Progressive
Bits/(Pixel*Frame) : 0.209
Stream size : 1 021 MiB (79%)
Writing library : x264 core 144 r2533 c8a773e
Encoding settings : cabac=1 / ref=4 / deblock=1:0:0 / analyse=0x3:0x113 / me=umh / subme=8 / psy=1 / psy_rd=1.00:0.00 / mixed_ref=1 / me_range=24 / chroma_me=1 / trellis=1 / 8x8dct=1 / cqm=0 / deadzone=21,11 / fast_pskip=1 / chroma_qp_offset=-2 / threads=3 / lookahead_threads=1 / sliced_threads=0 / nr=0 / decimate=1 / interlaced=0 / bluray_compat=0 / constrained_intra=0 / bframes=3 / b_pyramid=0 / b_adapt=2 / b_bias=0 / direct=3 / weightb=1 / open_gop=0 / weightp=2 / keyint=250 / keyint_min=25 / scenecut=40 / intra_refresh=0 / rc_lookahead=40 / rc=abr / mbtree=1 / bitrate=1600 / ratetol=1.0 / qcomp=0.60 / qpmin=10 / qpmax=51 / qpstep=4 / ip_ratio=1.41 / aq=1:1.00
Language : English
Default : Yes
Forced : No

Audio
ID : 2
Format : AC-3
Format/Info : Audio Coding 3
Format settings, Endianness : Big
Codec ID : A_AC3
Duration : 1 h 31 min
Bit rate mode : Constant
Bit rate : 384 kb/s
Channel(s) : 1 channel
Channel positions : Front: C
Sampling rate : 48.0 kHz
Frame rate : 31.250 FPS (1536 SPF)
Bit depth : 16 bits
Compression mode : Lossy
Delay relative to video : -42 ms
Stream size : 252 MiB (19%)
Language : French
Service kind : Complete Main
Default : Yes
Forced : No

Text
ID : 3
Format : VobSub
Muxing mode : zlib
Codec ID : S_VOBSUB
Codec ID/Info : Picture based subtitle format used on DVDs
Language : English
Default : Yes
Forced : No

Menu
00:00:00.000 : en:Chapter 01
00:02:48.701 : en:Chapter 02
00:11:32.441 : en:Chapter 03
00:18:09.088 : en:Chapter 04
00:19:50.222 : en:Chapter 05
00:21:33.792 : en:Chapter 06
00:25:08.840 : en:Chapter 07
00:28:50.895 : en:Chapter 08
00:33:29.841 : en:Chapter 09
00:36:42.366 : en:Chapter 10
00:39:37.041 : en:Chapter 11
00:45:56.120 : en:Chapter 12
00:48:56.600 : en:Chapter 13
00:53:30.540 : en:Chapter 14
00:57:15.432 : en:Chapter 15
01:03:30.673 : en:Chapter 16
01:07:32.548 : en:Chapter 17
01:11:36.959 : en:Chapter 18
01:14:30.666 : en:Chapter 19
01:19:39.775 : en:Chapter 20
01:26:19.007 : en:Chapter 21




Screenshots (click to enlarge to original size):

Elevator to the Gallows / Ascenseur pour l'échafaud (1958)

Elevator to the Gallows / Ascenseur pour l'échafaud (1958)

Elevator to the Gallows / Ascenseur pour l'échafaud (1958)


Elevator to the Gallows / Ascenseur pour l'échafaud (1958)




–––––––––––––––––––––––––––––––––––––––-
OR OR
–––––––––––––––––––––––––––––––––––––––-

–––––––––––––––––––––––––––––––––––––––-