Subcategories

Emoji - Accendi le emozioni (2017)

Posted By: JohnSmith
720p (HD) / BDRip IMDb
Emoji - Accendi le emozioni (2017)

Emoji - Accendi le emozioni / The Emoji Movie (2017)
BDRip | MKV / AVC@1820 kb/s | 848x352 | 1h 26mn | 1.33 GB
Italian (dubbed): AC3, 384 kb/s (6 ch) | Subtitles: Italian
BDRip 720p | MKV / AVC@3330 kb/s | 1280x534 | 1h 26mn | 2.24 GB
Italian (dubbed): AC3, 384 kb/s (6 ch) | Subtitles: Italian
Genre: Animation | Adventure | Comedy | Family | Sci-Fi

Dietro tutte le app di messaggistica si nasconde Messaggiopolis, una vivace città in cui vivono le emoticon, che sperano di essere selezionate dal proprietario dello smartphone. Ogni emoji ha una sola espressione facciale ma ciò non vale per Gene, una esuberante icona nata senza filtri e dotata di espressioni multiple. Determinato a diventare "normale" per essere simile alle altre emoticon, Gene chiede aiuto al miglior amico Gimme-5 e alla famigerata hacker Rebel. I tre si imbarcheranno in un avventuroso viaggio tra app per trovare il Codice che potrà risolvere il problema di Gene. Quando però un pericolo maggiore minaccia tutto lo smartphone, avranno per le mani il destino di tutte le emoticon e del loro universo.




General
Unique ID : 223928309843243623058954140291947833879 (0xA877061352226FCCB7C49FD60E782A17)
Complete name : A:\Emoji.Accendi.Le.Emozioni.2017.iTA.Bluray.480p.x264-CYBER.mkv
Format : Matroska
Format version : Version 4 / Version 2
File size : 1.33 GiB
Duration : 1 h 26 min
Overall bit rate : 2 203 kb/s
Encoded date : UTC 2017-12-06 12:59:39
Writing application : mkvmerge v8.3.0 ('Over the Horizon') 64bit
Writing library : libebml v1.3.1 + libmatroska v1.4.2

Video
ID : 1
Format : AVC
Format/Info : Advanced Video Codec
Format profile : High@L4.1
Format settings, CABAC : Yes
Format settings, ReFrames : 5 frames
Codec ID : V_MPEG4/ISO/AVC
Duration : 1 h 26 min
Bit rate : 1 817 kb/s
Width : 848 pixels
Height : 352 pixels
Display aspect ratio : 2.40:1
Original display aspect rat : 2.40:1
Frame rate mode : Constant
Frame rate : 23.976 (24000/1001) FPS
Color space : YUV
Chroma subsampling : 4:2:0
Bit depth : 8 bits
Scan type : Progressive
Bits/(Pixel*Frame) : 0.254
Stream size : 1.10 GiB (82%)
Writing library : x264 core 152 r2851 ba24899
Language : English
Default : Yes
Forced : No

Audio
ID : 2
Format : AC-3
Format/Info : Audio Coding 3
Format settings, Endianness : Big
Codec ID : A_AC3
Duration : 1 h 26 min
Bit rate mode : Constant
Bit rate : 384 kb/s
Channel(s) : 6 channels
Channel positions : Front: L C R, Side: L R, LFE
Sampling rate : 48.0 kHz
Frame rate : 31.250 FPS (1536 spf)
Bit depth : 16 bits
Compression mode : Lossy
Stream size : 237 MiB (17%)
Title : DVD RESYNC
Language : Italian
Service kind : Complete Main
Default : Yes
Forced : No

Text
ID : 3
Format : UTF-8
Codec ID : S_TEXT/UTF8
Codec ID/Info : UTF-8 Plain Text
Duration : 1 h 25 min
Bit rate : 65 b/s
Count of elements : 1234
Stream size : 40.8 KiB (0%)
Language : Italian
Default : No
Forced : No





General
Unique ID : 234640970809936633814183972966020223416 (0xB086350A2938789096543476218111B8)
Complete name : A:\Emoji.Accendi.Le.Emozioni.2017.iTA.Bluray.720p.x264-CYBER.mkv
Format : Matroska
Format version : Version 4 / Version 2
File size : 2.24 GiB
Duration : 1 h 26 min
Overall bit rate : 3 714 kb/s
Encoded date : UTC 2017-12-06 12:59:17
Writing application : mkvmerge v8.3.0 ('Over the Horizon') 64bit
Writing library : libebml v1.3.1 + libmatroska v1.4.2

Video
ID : 1
Format : AVC
Format/Info : Advanced Video Codec
Format profile : High@L4.1
Format settings, CABAC : Yes
Format settings, ReFrames : 5 frames
Codec ID : V_MPEG4/ISO/AVC
Duration : 1 h 26 min
Bit rate : 3 328 kb/s
Width : 1 280 pixels
Height : 534 pixels
Display aspect ratio : 2.40:1
Original display aspect rat : 2.40:1
Frame rate mode : Constant
Frame rate : 23.976 (24000/1001) FPS
Color space : YUV
Chroma subsampling : 4:2:0
Bit depth : 8 bits
Scan type : Progressive
Bits/(Pixel*Frame) : 0.203
Stream size : 2.01 GiB (90%)
Writing library : x264 core 152 r2851 ba24899
Language : English
Default : Yes
Forced : No

Audio
ID : 2
Format : AC-3
Format/Info : Audio Coding 3
Format settings, Endianness : Big
Codec ID : A_AC3
Duration : 1 h 26 min
Bit rate mode : Constant
Bit rate : 384 kb/s
Channel(s) : 6 channels
Channel positions : Front: L C R, Side: L R, LFE
Sampling rate : 48.0 kHz
Frame rate : 31.250 FPS (1536 spf)
Bit depth : 16 bits
Compression mode : Lossy
Stream size : 237 MiB (10%)
Title : DVD RESYNC
Language : Italian
Service kind : Complete Main
Default : Yes
Forced : No

Text
ID : 3
Format : UTF-8
Codec ID : S_TEXT/UTF8
Codec ID/Info : UTF-8 Plain Text
Duration : 1 h 25 min
Bit rate : 65 b/s
Count of elements : 1234
Stream size : 40.8 KiB (0%)
Language : Italian
Default : No
Forced : No




Screenshots BDRip

Emoji - Accendi le emozioni (2017)

Emoji - Accendi le emozioni (2017)

Emoji - Accendi le emozioni (2017)


Screenshots BDRip 720p

Emoji - Accendi le emozioni (2017)

Emoji - Accendi le emozioni (2017)

Emoji - Accendi le emozioni (2017)