Tags
Language
Tags

Enemy Lines (2020)

Posted By: Tavaz
720p (HD) / BDRip IMDb
Enemy Lines (2020)

Enemy Lines (2020)
BDRip | MKV | 1280x720 | English | H264 @ 2560 kbps | AC-3 @ 448 kbps | 1 h 32 min | 1.94 GiB
Subtitles: English
Genre: War, Action

In the frozen, war torn landscape of occupied Poland during World War II, a crack team of allied commandos are sent on a deadly mission behind enemy lines to extract a rocket scientist from the hands of the Nazis.

bf814a5c0ce713b1a190ee841b42eabf.mkv (1.9 GB)



General
Unique ID : 294568167377713287063174185746631542729 (0xDD9BC3F2AB87A92052F915F518E4C7C9)
Complete name : ./bf814a5c0ce713b1a190ee841b42eabf.mkv
Format : Matroska
Format version : Version 4 / Version 2
File size : 1.94 GiB
Duration : 1 h 32 min
Overall bit rate : 3 009 kb/s
Movie name : Enemy.Lines.2020.720p.BluRay.x264-x0r
Encoded date : UTC 2020-11-12 17:01:52
Writing application : mkvmerge v7.7.0 ('Six Voices') 64bit built on Mar 1 2015 01:50:05
Writing library : libebml v1.3.1 + libmatroska v1.4.2

Video
ID : 1
Format : AVC
Format/Info : Advanced Video Codec
Format profile : High@L4
Format settings : CABAC / 8 Ref Frames
Format settings, CABAC : Yes
Format settings, RefFrames : 8 frames
Codec ID : V_MPEG4/ISO/AVC
Duration : 1 h 32 min
Bit rate : 2 560 kb/s
Width : 1 280 pixels
Height : 720 pixels
Display aspect ratio : 16:9
Frame rate mode : Constant
Frame rate : 23.976 (24000/1001) FPS
Color space : YUV
Chroma subsampling : 4:2:0
Bit depth : 8 bits
Scan type : Progressive
Bits/(Pixel*Frame) : 0.116
Stream size : 1.65 GiB (85%)
Writing library : x264 core 155 r2917 0a84d98
Encoding settings : cabac=1 / ref=8 / deblock=1:-2:-2 / analyse=0x3:0x133 / me=umh / subme=9 / psy=1 / psy_rd=1.00:0.25 / mixed_ref=1 / me_range=24 / chroma_me=1 / trellis=2 / 8x8dct=1 / cqm=0 / deadzone=21,11 / fast_pskip=1 / chroma_qp_offset=-4 / threads=22 / lookahead_threads=2 / sliced_threads=0 / nr=0 / decimate=1 / interlaced=0 / bluray_compat=0 / constrained_intra=0 / bframes=4 / b_pyramid=2 / b_adapt=2 / b_bias=0 / direct=3 / weightb=1 / open_gop=0 / weightp=2 / keyint=240 / keyint_min=24 / scenecut=40 / intra_refresh=0 / rc_lookahead=120 / rc=2pass / mbtree=1 / bitrate=2560 / ratetol=1.0 / qcomp=0.60 / qpmin=0 / qpmax=69 / qpstep=4 / cplxblur=20.0 / qblur=0.5 / vbv_maxrate=20000 / vbv_bufsize=25000 / nal_hrd=none / filler=0 / ip_ratio=1.40 / aq=1:1.00
Language : English
Default : Yes
Forced : No
Color range : Limited
Color primaries : BT.709
Transfer characteristics : BT.709
Matrix coefficients : BT.709

Audio
ID : 2
Format : AC-3
Format/Info : Audio Coding 3
Format settings, Endianness : Big
Codec ID : A_AC3
Duration : 1 h 32 min
Bit rate mode : Constant
Bit rate : 448 kb/s
Channel(s) : 6 channels
Channel positions : Front: L C R, Side: L R, LFE
Sampling rate : 48.0 kHz
Frame rate : 31.250 FPS (1536 SPF)
Bit depth : 16 bits
Compression mode : Lossy
Delay relative to video : -5 ms
Stream size : 296 MiB (15%)
Title : Surround
Language : English
Service kind : Complete Main
Default : Yes
Forced : No

Text #1
ID : 3
Format : UTF-8
Codec ID : S_TEXT/UTF8
Codec ID/Info : UTF-8 Plain Text
Duration : 1 h 31 min
Bit rate : 50 b/s
Count of elements : 1352
Stream size : 33.4 KiB (0%)
Title : Foreign Only
Language : English
Default : Yes
Forced : Yes

Text #2
ID : 4
Format : UTF-8
Codec ID : S_TEXT/UTF8
Codec ID/Info : UTF-8 Plain Text
Duration : 1 h 27 min
Bit rate : 50 b/s
Count of elements : 1283
Stream size : 32.5 KiB (0%)
Title : SDH
Language : English
Default : No
Forced : No

Menu
00:00:00.000 : :Chapter 1
00:05:36.837 : :Chapter 2
00:10:39.389 : :Chapter 3
00:17:13.407 : :Chapter 4
00:25:36.869 : :Chapter 5
00:32:54.306 : :Chapter 6
00:37:29.122 : :Chapter 7
00:42:33.926 : :Chapter 8
00:46:46.220 : :Chapter 9
00:54:46.450 : :Chapter 10
01:00:03.308 : :Chapter 11
01:07:50.066 : :Chapter 12
01:10:31.060 : :Chapter 13
01:15:10.798 : :Chapter 14
01:24:25.561 : :Chapter 15
01:28:49.699 : :Chapter 16





Enemy Lines (2020)


Enemy Lines (2020)


Enemy Lines (2020)


Enemy Lines (2020)


Enemy Lines (2020)