Tags
Language
Tags

Sci Ch - Engineering Catastrophes Series 3: Part 11 Apollo 13 the Secret Evidence (2019)

Posted By: Tutorial
1080p (FullHD) / HDTV
Sci Ch - Engineering Catastrophes Series 3: Part 11 Apollo 13 the Secret Evidence (2019)

Sci Ch - Engineering Catastrophes Series 3: Part 11 Apollo 13 the Secret Evidence (2019)
HDTV | 1920 x 1080 | .MP4/AVC @ 4522 Kbps | 42 min 29 s | 1.39 GB
Audio: English AAC 160 Kbps, 2 channels | Subs: English
Genre: Documentary

New science reveals the inside story of the Apollo 13 disaster, and using the latest evidence, experts reveal what really went wrong and how NASA saved the lives of the three astronauts stranded in space in a life-or-death race against the clock.

General
Complete name : Engineering.Catastrophes.Series.3.Part.11.Apollo.13.The.Secret.Evidence.mp4
Format : MPEG-4
Format profile : Base Media
Codec ID : isom (isom)
File size : 1.39 GiB
Duration : 42 min 29 s
Overall bit rate mode : Variable
Overall bit rate : 4 684 kb/s
Encoded date : UTC 2020-01-14 14:35:10
Tagged date : UTC 2020-01-14 14:35:10

Video
ID : 1
Format : AVC
Format/Info : Advanced Video Codec
Format profile : High@L4.1
Format settings, CABAC : No
Format settings, ReFrames : 2 frames
Format settings, GOP : M=1, N=12
Codec ID : avc1
Codec ID/Info : Advanced Video Coding
Duration : 42 min 28 s
Bit rate : 4 522 kb/s
Maximum bit rate : 21.1 Mb/s
Width : 1 920 pixels
Height : 1 080 pixels
Display aspect ratio : 16:9
Frame rate mode : Constant
Frame rate : 23.976 (24000/1001) FPS
Color space : YUV
Chroma subsampling : 4:2:0
Bit depth : 8 bits
Scan type : Progressive
Bits/(Pixel*Frame) : 0.091
Stream size : 1.34 GiB (97%)
Language : English
Encoded date : UTC 2019-12-19 11:08:07
Tagged date : UTC 2020-01-14 14:35:43

Audio
ID : 2
Format : AAC
Format/Info : Advanced Audio Codec
Format profile : LC
Codec ID : 40
Duration : 42 min 29 s
Bit rate mode : Variable
Bit rate : 160 kb/s
Maximum bit rate : 216 kb/s
Channel(s) : 2 channels
Channel positions : Front: L R
Sampling rate : 48.0 kHz
Frame rate : 46.875 FPS (1024 spf)
Compression mode : Lossy
Stream size : 48.6 MiB (3%)
Language : English
Encoded date : UTC 2020-01-14 14:35:37
Tagged date : UTC 2020-01-14 14:35:43

Text
ID : 3
Format : Timed Text
Codec ID : tx3g
Duration : 42 min 28 s
Bit rate mode : Variable
Bit rate : 141 b/s
Stream size : 43.7 KiB (0%)
Forced : No
Encoded date : UTC 2020-01-14 14:35:43
Tagged date : UTC 2020-01-14 14:35:43
Screenshots

Sci Ch - Engineering Catastrophes Series 3: Part 11 Apollo 13 the Secret Evidence (2019)

Sci Ch - Engineering Catastrophes Series 3: Part 11 Apollo 13 the Secret Evidence (2019)

Welcome to my blog - daily update!

Sci Ch - Engineering Catastrophes Series 3: Part 11 Apollo 13 the Secret Evidence (2019)