Tags
Language
Tags

Dicovery Ch. - Engineering Catastrophes Series 4 Part 6: Nightmare in New Orleans (2021)

Posted By: notbanned
1080p (FullHD) / HDTV
Dicovery Ch. - Engineering Catastrophes Series 4 Part 6: Nightmare in New Orleans (2021)

Dicovery Ch. - Engineering Catastrophes Series 4 Part 6: Nightmare in New Orleans (2021)
HDTV | 1920x1080 | .MP4/AVC @ 4501 Kbps | 42 min 0 s | 1.37 GiB
Audio: English AAC 161 kbps, 2 channels | Subs: English
Genre: Documentary

Construction turns catastrophic in New Orleans when the side of a hotel complex collapses on a busy street below; expert engineers investigate to uncover the reason behind this sudden and fatal disaster.

General
Complete name : Engineering.Catastrophes.Series.4.Part.6.Nightmare.in.New.Orleans.1080p.mp4
Format : MPEG-4
Format profile : Base Media
Codec ID : isom (isom/iso2/avc1/mp41)
File size : 1.37 GiB
Duration : 42 min 0 s
Overall bit rate mode : Variable
Overall bit rate : 4 667 kb/s

Video
ID : 1
Format : AVC
Format/Info : Advanced Video Codec
Format profile : Main@L4
Format settings, CABAC : Yes
Format settings, ReFrames : 3 frames
Codec ID : avc1
Codec ID/Info : Advanced Video Coding
Duration : 42 min 0 s
Bit rate : 4 501 kb/s
Width : 1 920 pixels
Height : 1 080 pixels
Display aspect ratio : 16:9
Frame rate mode : Constant
Frame rate : 23.976 (23976/1000) FPS
Color space : YUV
Chroma subsampling : 4:2:0
Bit depth : 8 bits
Scan type : Progressive
Bits/(Pixel*Frame) : 0.091
Stream size : 1.32 GiB (96%)
Language : English

Audio
ID : 2
Format : AAC
Format/Info : Advanced Audio Codec
Format profile : LC
Codec ID : 40
Duration : 42 min 0 s
Bit rate mode : Constant
Bit rate : 161 kb/s
Channel(s) : 2 channels
Channel positions : Front: L R
Sampling rate : 48.0 kHz
Frame rate : 46.875 FPS (1024 spf)
Compression mode : Lossy
Stream size : 48.3 MiB (3%)
Language : English
Default : Yes
Alternate group : 1

Text
ID : 3
Format : Timed Text
Muxing mode : sbtl
Codec ID : tx3g
Duration : 41 min 55 s
Bit rate mode : Variable
Bit rate : 164 b/s
Stream size : 50.4 KiB (0%)
Language : English
Default : Yes
Forced : No
Alternate group : 3


Screenshots:

Dicovery Ch. - Engineering Catastrophes Series 4 Part 6: Nightmare in New Orleans (2021)

Dicovery Ch. - Engineering Catastrophes Series 4 Part 6: Nightmare in New Orleans (2021)

Dicovery Ch. - Engineering Catastrophes Series 4 Part 6: Nightmare in New Orleans (2021)

Dicovery Ch. - Engineering Catastrophes Series 4 Part 6: Nightmare in New Orleans (2021)