Tags
Language
Tags

Epix - Enslaved: Series 1 (2020)

Posted By: Tutorial
1080p (FullHD) / HDTV
Epix - Enslaved: Series 1 (2020)

Epix - Enslaved: Series 1 (2020)
HDTV | 1920 x 1080 | .MP4/AVC @ 4500 Kbps | 6x~52mn | 10.0 GB
Audio: English AAC 160 Kbps, 2 channels | Subs: English
Genre: Documentary

This six-episode docuseries that explores 400 years of human trafficking from Africa to the New World by following the efforts of Diving with a Purpose, as they search for and locate six slave ships that went down with their human cargo. Executive produced and featuring award-winning actor Samuel L. Jackson, the series tracks the efforts of divers as they utilize new methods of underwater archaeology to identify and locate these sunken slave ships for the first time in history. These modern day adventures serve as a springboard to tell the stories of the ideology, economics and politics of slavery, while also celebrating stories of resistance, the cultures left behind and the culture that we live in.

Part 1: Cultures Left Behind
Episode 1 launches the epic story of the transatlantic slave trade. Divers from Diving With a Purpose go in search of sunken slave ships. Hollywood icon Samuel L. Jackson goes on a personal journey to meet the tribe of his ancestors for the first time.


Part 2: Rationalization
Samuel L. Jackson recruits two award-winning journalists to go on a mission to understand the process that led Europeans to see slavery as profitable, rational and justified. Diving With a Purpose divers locate the earliest slave wreck ever found.


Part 3: Follow the Money
Shot on location in Suriname, Brazil, Portugal and the UK, this episode investigates the economics of the slave trade, while searching for a sunken slave ship that represents the single greatest loss of life during the entire slave trade.


Part 4: New World Cultures
Samuel L. Jackson visits Africatown, Alabama, the only African town established in America. The Diving With a Purpose divers help youths in Costa Rica discover their African heritage, by diving and identifying a sunken slave ship off their coast.


Part 5: Resistance
This episode investigates African resistance to slavery in Africa and the “Underground Railroad.” The Diving With a Purpose divers embark on an investigation to positively identify a preserved wreck that ferried African Americans to freedom


Part 6: Abolition
The final episode explores the politics that brought the enslavement of Africans in the West to an end. Diving with a Purpose divers search for “The London,” a ship that re-enslaved freed Africans from St. Lucia and illegally trafficked them to England.

General
Complete name : Enslaved.Series.1.1of6.Cultures.Left.Behind.mp4
Format : MPEG-4
Format profile : Base Media
Codec ID : isom (isom/iso2/avc1/mp41)
File size : 1.68 GiB
Duration : 52 min 36 s
Overall bit rate mode : Variable
Overall bit rate : 4 558 kb/s
Movie name : Enslaved.Series.1.1of6.Cultures.Left.Behind.1080p.HDTV.x264.AAC.MVGroup.org
Performer : VideoProc
Genre : Video
Writing application : Lavf58.29.100
Comment : Enslaved.Series.1.1of6.Cultures.Left.Behind.1080p.HDTV.x264.AAC.MVGroup.org

Video
ID : 1
Format : AVC
Format/Info : Advanced Video Codec
Format profile : High@L4.1
Format settings, CABAC : Yes
Format settings, ReFrames : 1 frame
Codec ID : avc1
Codec ID/Info : Advanced Video Coding
Duration : 52 min 36 s
Bit rate : 4 500 kb/s
Width : 1 920 pixels
Height : 1 080 pixels
Display aspect ratio : 16:9
Frame rate mode : Constant
Frame rate : 23.976 (24000/1001) FPS
Color space : YUV
Chroma subsampling : 4:2:0
Bit depth : 8 bits
Scan type : Progressive
Bits/(Pixel*Frame) : 0.091
Stream size : 1.61 GiB (96%)
Writing library : x264 core 159
Encoding settings : cabac=1 / ref=1 / deblock=1:-1:-1 / analyse=0x3:0x13 / me=hex / subme=2 / psy=1 / psy_rd=1.00:0.15 / mixed_ref=0 / me_range=16 / chroma_me=1 / trellis=0 / 8x8dct=1 / cqm=0 / deadzone=21,11 / fast_pskip=1 / chroma_qp_offset=0 / threads=3 / lookahead_threads=1 / sliced_threads=0 / nr=0 / decimate=1 / interlaced=0 / bluray_compat=0 / constrained_intra=0 / bframes=0 / weightp=1 / keyint=250 / keyint_min=25 / scenecut=40 / intra_refresh=0 / rc_lookahead=10 / rc=cbr / mbtree=1 / bitrate=4500 / ratetol=1.0 / qcomp=0.60 / qpmin=0 / qpmax=69 / qpstep=4 / vbv_maxrate=4500 / vbv_bufsize=1835 / nal_hrd=none / filler=0 / ip_ratio=1.40 / aq=1:1.00

Audio
ID : 2
Format : AAC
Format/Info : Advanced Audio Codec
Format profile : LC
Codec ID : 40
Duration : 52 min 36 s
Duration_LastFrame : -11 ms
Bit rate mode : Constant
Bit rate : 160 kb/s
Channel(s) : 2 channels
Channel positions : Front: L R
Sampling rate : 48.0 kHz
Frame rate : 46.875 FPS (1024 spf)
Compression mode : Lossy
Stream size : 60.3 MiB (4%)
Language : English
Default : Yes
Alternate group : 1

Text
ID : 3
Format : Timed Text
Muxing mode : sbtl
Codec ID : tx3g
Duration : 52 min 20 s
Bit rate mode : Variable
Bit rate : 90 b/s
Stream size : 34.7 KiB (0%)
Language : Avestan
Default : Yes
Forced : No
Alternate group : 3
Screenshots

Epix - Enslaved: Series 1 (2020)

Epix - Enslaved: Series 1 (2020)

Epix - Enslaved: Series 1 (2020)

Welcome to my blog - daily update!