Tags
Language
Tags

Renzo Martens - Episode Three: Enjoy Poverty (2009)

Posted By: notbanned
SD / DVDRip
Renzo Martens - Episode Three: Enjoy Poverty (2009)

Renzo Martens - Episode Three: Enjoy Poverty (2009)
DVDRip | 720x540 | .MKV/AVC @ 2140 Kbps | 1 h 27 min | 1.66 GiB
Audio: English AC3 192 kbps, 2 channels | Subs: English, Nederlands, Français, Deutsch
Genre: Documentary

Dutch artist Renzo Martens spent three years traveling throughout the Democratic Republic of the Congo asking the question: "Who owns poverty?" In an epic journey, the film establishes that images of poverty are the Congo’s most lucrative export, generating more revenue than traditional exports like gold, diamonds, or cocoa. However, just as with these traditional exports, those that provide the raw material: the poor being filmed, hardly benefit from it at all.

Amidst ethnic war and relentless economic exploitation, Martens sets up an emancipation program that aims to teach the poor how to benefit from their biggest resource: poverty. Thus, Congolese photographers are encouraged to move on from development-hindering activities, such as photographing weddings and parties, and to start taking images of war and disaster. With a neon sign, packed in metal crates and carried through the jungle by Martens' porters, the local population is encouraged to capitalize on what the world has given them as their share. It states 'Enjoy Poverty.' Hapless plantation workers question it, accept it, dance around it, yet in the end, the whole project seems bound to fail.

General
Unique ID : 113478677883773508042032725358008207277 (0x555F32C8F0577C10A7C48C7C042207AD)
Complete name : Episode.Three.Enjoy.1of2.Poverty.DVD.mkv
Format : Matroska
Format version : Version 4 / Version 2
File size : 1.43 GiB
Duration : 1 h 27 min
Overall bit rate : 2 348 kb/s

Video
ID : 1
Format : AVC
Format/Info : Advanced Video Codec
Format profile : High@L3.1
Format settings, CABAC : Yes
Format settings, ReFrames : 9 frames
Codec ID : V_MPEG4/ISO/AVC
Duration : 1 h 27 min
Bit rate : 2 140 kb/s
Width : 720 pixels
Height : 574 pixels
Display aspect ratio : 16:9
Frame rate mode : Constant
Frame rate : 25.000 FPS
Color space : YUV
Chroma subsampling : 4:2:0
Bit depth : 8 bits
Scan type : Progressive
Bits/(Pixel*Frame) : 0.207
Stream size : 1.28 GiB (90%)
Writing library : x264 core 148 r2708 86b7198
Encoding settings : cabac=1 / ref=9 / deblock=1:-3:-3 / analyse=0x3:0x133 / me=umh / subme=9 / psy=1 / psy_rd=1.00:0.00 / mixed_ref=1 / me_range=24 / chroma_me=1 / trellis=2 / 8x8dct=1 / cqm=0 / deadzone=21,11 / fast_pskip=0 / chroma_qp_offset=-2 / threads=12 / lookahead_threads=1 / sliced_threads=0 / nr=0 / decimate=1 / interlaced=0 / bluray_compat=0 / constrained_intra=0 / bframes=6 / b_pyramid=2 / b_adapt=2 / b_bias=0 / direct=3 / weightb=1 / open_gop=0 / weightp=1 / keyint=250 / keyint_min=25 / scenecut=40 / intra_refresh=0 / rc_lookahead=60 / rc=2pass / mbtree=1 / bitrate=2140 / ratetol=1.0 / qcomp=0.60 / qpmin=0 / qpmax=69 / qpstep=4 / cplxblur=20.0 / qblur=0.5 / vbv_maxrate=17500 / vbv_bufsize=17500 / nal_hrd=none / filler=0 / ip_ratio=1.40 / aq=2:1.00
Default : Yes
Forced : No
Color range : Limited
Color primaries : BT.601 PAL
Transfer characteristics : BT.709
Matrix coefficients : BT.601

Audio
ID : 2
Format : AC-3
Format/Info : Audio Coding 3
Format settings, Endianness : Big
Codec ID : A_AC3
Duration : 1 h 27 min
Bit rate mode : Constant
Bit rate : 192 kb/s
Channel(s) : 2 channels
Channel positions : Front: L R
Sampling rate : 48.0 kHz
Frame rate : 31.250 FPS (1536 spf)
Bit depth : 16 bits
Compression mode : Lossy
Stream size : 120 MiB (8%)
Title : Stereo
Service kind : Complete Main
Default : Yes
Forced : No

Text #1
ID : 3
Format : VobSub
Codec ID : S_VOBSUB
Codec ID/Info : Picture based subtitle format used on DVDs
Language : English
Default : No
Forced : No

Text #2
ID : 4
Format : VobSub
Codec ID : S_VOBSUB
Codec ID/Info : Picture based subtitle format used on DVDs
Language : Dutch
Default : No
Forced : No

Text #3
ID : 5
Format : VobSub
Codec ID : S_VOBSUB
Codec ID/Info : Picture based subtitle format used on DVDs
Language : French
Default : No
Forced : No

Text #4
ID : 6
Format : VobSub
Codec ID : S_VOBSUB
Codec ID/Info : Picture based subtitle format used on DVDs
Language : German
Default : No
Forced : No

Menu
00:00:00.000 : :Chapter 1
00:06:55.680 : :Chapter 2
00:16:28.800 : :Chapter 3
00:23:59.040 : :Chapter 4
00:31:53.280 : :Chapter 5
00:41:46.080 : :Chapter 6
00:48:55.200 : :Chapter 7
00:57:59.520 : :Chapter 8
01:04:57.600 : :Chapter 9
01:14:48.960 : :Chapter 10


Screenshots:

Renzo Martens - Episode Three: Enjoy Poverty (2009)

Renzo Martens - Episode Three: Enjoy Poverty (2009)

Renzo Martens - Episode Three: Enjoy Poverty (2009)

Renzo Martens - Episode Three: Enjoy Poverty (2009)