Tags
Language
Tags

Channel 4 - Einstein's Biggest Blunder (2000)

Posted By: Tutorial
SD / DVDRip
Channel  4 - Einstein's Biggest Blunder (2000)

Channel 4 - Einstein's Biggest Blunder (2000)
PDTV | 688 x 448 | .AVI/DivX 5 @ 1699 Kbps | 49 min 45 s | 699 MB
Audio: English AC-3 256 Kbps, 2 channels | Subs: None
Genre: Documentary, Science

This program began from Newtonian view of the universe then takes you through the General Relativity and the Flatness problem. This leads to the Horizon problem and its solution, the Inflation theory. However modern astronomy doesn't stop here, the Inflation theory has its flaw too, and what happened before the big bang? This can all be answered by changing one thing, the one thing no body dare to question until now.

General
Complete name : Equinox.Einsteins.Biggest.Blunder.avi
Format : AVI
Format/Info : Audio Video Interleave
File size : 699 MiB
Duration : 49 min 45 s
Overall bit rate : 1 964 kb/s
Writing application : VirtualDubMod 1.5.10.1 (build 2366/release)
Writing library : VirtualDubMod build 2366/release

Video
ID : 0
Format : MPEG-4 Visual
Format settings, BVOP : 1
Format settings, QPel : No
Format settings, GMC : No warppoints
Format settings, Matrix : Default (H.263)
Muxing mode : Packed bitstream
Codec ID : DX50
Codec ID/Hint : DivX 5
Duration : 49 min 45 s
Bit rate : 1 699 kb/s
Nominal bit rate : 4 836 kb/s
Width : 688 pixels
Height : 448 pixels
Display aspect ratio : 3:2
Frame rate : 25.000 FPS
Color space : YUV
Chroma subsampling : 4:2:0
Bit depth : 8 bits
Scan type : Progressive
Compression mode : Lossy
Bits/(Pixel*Frame) : 0.220
Stream size : 605 MiB (86%)
Writing library : DivX 5.1.1 (Maupiti) (UTC 2003-11-19)

Audio
ID : 1
Format : AC-3
Format/Info : Audio Coding 3
Format settings, Endianness : Big
Codec ID : 2000
Duration : 49 min 45 s
Bit rate mode : Constant
Bit rate : 256 kb/s
Channel(s) : 2 channels
Channel positions : Front: L R
Sampling rate : 48.0 kHz
Frame rate : 31.250 FPS (1536 spf)
Bit depth : 16 bits
Compression mode : Lossy
Stream size : 91.1 MiB (13%)
Alignment : Split accross interleaves
Interleave, duration : 40 ms (1.00 video frame)
Interleave, preload duration : 500 ms
Service kind : Complete Main
Screenshots

Channel  4 - Einstein's Biggest Blunder (2000)

Channel  4 - Einstein's Biggest Blunder (2000)

Welcome to my blog - daily update!

Channel  4 - Einstein's Biggest Blunder (2000)