Tags
Language
Tags
January 2023
Su Mo Tu We Th Fr Sa
1 2 3 4 5 6 7
8 9 10 11 12 13 14
15 16 17 18 19 20 21
22 23 24 25 26 27 28
29 30 31 1 2 3 4

Escape to the Great Dismal Swamp (2018)

Posted By: notbanned
1080p (FullHD) / HDTV IMDb
Escape to the Great Dismal Swamp (2018)

Escape to the Great Dismal Swamp (2018)
HDTV | 1920x1080 | .MKV/AVC @ 4500 Kbps | 44 min 0 s | 1.44 GiB
Audio: English AC3 192 kbps, 2 channels | Subs: English
Genre: Documentary

In the 1800s, southern newspapers ran ads seeking runaway slaves suspected of taking refuge in a vast wetland called the Great Dismal Swamp. For decades, scholars have sought proof that the reports were true, and now they finally have it. See how a team of archaeologists is using new discoveries and modern dating methods to piece together this lost part of American history. Then discover what life was like for these brave men and women, who chose to suffer in the swamp and keep their freedom rather than live under the conditions of slavery.

General
Unique ID : 97482345594555972664288737292970851953 (0x49566AB6387ABF8E17049D5FD2CF7E71)
Complete name : Escape.to.the.Great.Dismal.Swamp.2018.1080p.mkv
Format : Matroska
Format version : Version 4 / Version 2
File size : 1.44 GiB
Duration : 44 min 0 s
Overall bit rate : 4 693 kb/s

Video
ID : 1
Format : AVC
Format/Info : Advanced Video Codec
Format profile : High@L4
Format settings, CABAC : Yes
Format settings, ReFrames : 2 frames
Codec ID : V_MPEG4/ISO/AVC
Duration : 44 min 0 s
Bit rate mode : Constant
Bit rate : 4 500 kb/s
Width : 1 920 pixels
Height : 1 080 pixels
Display aspect ratio : 16:9
Frame rate mode : Constant
Frame rate : 29.970 (30000/1001) FPS
Color space : YUV
Chroma subsampling : 4:2:0
Bit depth : 8 bits
Scan type : Progressive
Bits/(Pixel*Frame) : 0.072
Stream size : 1.38 GiB (96%)
Language : English
Default : Yes
Forced : No

Audio
ID : 2
Format : AC-3
Format/Info : Audio Coding 3
Format settings, Endianness : Big
Codec ID : A_AC3
Duration : 44 min 0 s
Bit rate mode : Constant
Bit rate : 192 kb/s
Channel(s) : 2 channels
Channel positions : Front: L R
Sampling rate : 48.0 kHz
Frame rate : 31.250 FPS (1536 spf)
Bit depth : 16 bits
Compression mode : Lossy
Stream size : 60.4 MiB (4%)
Language : English
Service kind : Complete Main
Default : Yes
Forced : No

Text
ID : 3
Format : UTF-8
Codec ID : S_TEXT/UTF8
Codec ID/Info : UTF-8 Plain Text
Duration : 43 min 57 s
Bit rate : 128 b/s
Count of elements : 904
Stream size : 41.5 KiB (0%)
Language : English
Default : No
Forced : No


Screenshots:

Escape to the Great Dismal Swamp (2018)

Escape to the Great Dismal Swamp (2018)

Escape to the Great Dismal Swamp (2018)

Escape to the Great Dismal Swamp (2018)