Tags
Language
Tags
February 2023
Su Mo Tu We Th Fr Sa
29 30 31 1 2 3 4
5 6 7 8 9 10 11
12 13 14 15 16 17 18
19 20 21 22 23 24 25
26 27 28 1 2 3 4

Et les mistrals gagnants (2017)

Posted By: Tavaz
720p (HD) / BDRip IMDb
Et les mistrals gagnants (2017)

Et les mistrals gagnants (2017)
BDRip | MKV | 1280x688 | French | H264 @ 4367 kbps | DTS @ 1509 kbps | 1 h 19 min | 3.28 GiB
Genre: Documentary

Ambre, Camille, Charles, Imad et Tugdual ont entre 6 et 9 ans. Ils vivent dans l’instant. Avec humour et surtout l’énergie optimiste de l’enfance, ils nous prennent par la main, nous entraînent dans leur monde et nous font partager leurs jeux, leurs joies, leurs rires, leurs rêves, leur maladie.

Et.Les.Mistrals.Gagnants.2016.FRENCH.720p.BluRay.x264-DuSS.mkv (3.3 GB)
et.les.mistrals.gagnants.2016.french.720p.bluray.x264.sample-duss.mkv (36.9 MB)



General
Unique ID : 216601822288202332393113381058709363662 (0xA2F3FE59A5093F728E077C0B1AA51BCE)
Complete name : ./Et.Les.Mistrals.Gagnants.2016.FRENCH.720p.BluRay.x264-DuSS.mkv
Format : Matroska
Format version : Version 4 / Version 2
File size : 3.28 GiB
Duration : 1 h 19 min
Overall bit rate : 5 873 kb/s
Encoded date : UTC 2017-11-20 06:44:01
Writing application : mkvmerge v6.8.0 ('Theme for Great Cities') 64bit built on Mar 2 2014 21:34:26
Writing library : libebml v1.3.0 + libmatroska v1.4.1

Video
ID : 1
Format : AVC
Format/Info : Advanced Video Codec
Format profile : High@L4.1
Format settings : CABAC / 9 Ref Frames
Format settings, CABAC : Yes
Format settings, RefFrames : 9 frames
Codec ID : V_MPEG4/ISO/AVC
Duration : 1 h 19 min
Bit rate : 4 367 kb/s
Width : 1 280 pixels
Height : 688 pixels
Display aspect ratio : 1.85:1
Frame rate mode : Constant
Frame rate : 24.000 FPS
Color space : YUV
Chroma subsampling : 4:2:0
Bit depth : 8 bits
Scan type : Progressive
Bits/(Pixel*Frame) : 0.207
Stream size : 2.37 GiB (72%)
Writing library : x264 core 152 r2851 ba24899
Encoding settings : cabac=1 / ref=9 / deblock=1:-3:-3 / analyse=0x3:0x113 / me=umh / subme=8 / psy=1 / psy_rd=1.00:0.00 / mixed_ref=1 / me_range=16 / chroma_me=1 / trellis=2 / 8x8dct=1 / cqm=0 / deadzone=21,11 / fast_pskip=0 / chroma_qp_offset=-2 / threads=18 / lookahead_threads=3 / sliced_threads=0 / nr=0 / decimate=1 / interlaced=0 / bluray_compat=0 / constrained_intra=0 / bframes=3 / b_pyramid=2 / b_adapt=1 / b_bias=0 / direct=1 / weightb=1 / open_gop=0 / weightp=2 / keyint=250 / keyint_min=24 / scenecut=40 / intra_refresh=0 / rc_lookahead=40 / rc=2pass / mbtree=1 / bitrate=4367 / ratetol=1.0 / qcomp=0.60 / qpmin=0 / qpmax=69 / qpstep=4 / cplxblur=20.0 / qblur=0.5 / ip_ratio=1.40 / aq=1:1.00
Language : English
Default : Yes
Forced : No

Audio
ID : 2
Format : DTS
Format/Info : Digital Theater Systems
Mode : 16
Format settings, Endianness : Big
Codec ID : A_DTS
Duration : 1 h 19 min
Bit rate mode : Constant
Bit rate : 1 509 kb/s
Channel(s) : 6 channels
Channel positions : Front: L C R, Side: L R, LFE
Sampling rate : 48.0 kHz
Frame rate : 93.750 FPS (512 SPF)
Bit depth : 24 bits
Compression mode : Lossy
Stream size : 862 MiB (26%)
Language : French
Default : Yes
Forced : No





Et les mistrals gagnants (2017)


Et les mistrals gagnants (2017)


Et les mistrals gagnants (2017)


Et les mistrals gagnants (2017)


Et les mistrals gagnants (2017)