Travel Channel - Expedition Unknown: Corsica's Nazi Treasure (2017)

Posted By: notbanned
Travel Channel - Expedition Unknown: Corsica's Nazi Treasure (2017)

Travel Channel - Expedition Unknown: Corsica's Nazi Treasure (2017)
HDTV | 1280x718 | .MP4/AVC @ 3356 Kbps | 43mn 48s | 1.03 GiB
Audio: English AAC 160 kbps, 2 channels | Subs: English
Genre: Documentary | Adventure

Josh Gates hunts for the hidden treasure of Erwin Rommel, a Nazi general who plundered the wealth of North Africa as his tank corps fled the continent. The search brings Josh to never-explored underground lakes and undersea relics of World War II.


General
Complete name : Expedition.Unknown.Corsicas.Nazi.Treasure.720p.mp4
Format : MPEG-4
Format profile : Base Media
Codec ID : isom
File size : 1.03 GiB
Duration : 43mn 48s
Overall bit rate mode : Variable
Overall bit rate : 3 378 Kbps

Video
ID : 1
Format : AVC
Format/Info : Advanced Video Codec
Format profile : High@L4.1
Format settings, CABAC : Yes
Format settings, ReFrames : 4 frames
Codec ID : avc1
Codec ID/Info : Advanced Video Coding
Duration : 42mn 0s
Bit rate : 3 356 Kbps
Maximum bit rate : 12.4 Mbps
Width : 1 280 pixels
Height : 718 pixels
Display aspect ratio : 16:9
Frame rate mode : Variable
Frame rate : 29.970 fps
Minimum frame rate : 29.412 fps
Maximum frame rate : 30.303 fps
Color space : YUV
Chroma subsampling : 4:2:0
Bit depth : 8 bits
Scan type : Progressive
Bits/(Pixel*Frame) : 0.122
Stream size : 1 009 MiB (95%)
Encoding settings : cabac=1 / ref=1 / deblock=1:0:0 / analyse=0x3:0x3 / me=dia / subme=1 / psy=1 / psy_rd=1.00:0.00 / mixed_ref=0 / me_range=16 / chroma_me=1 / trellis=0 / 8x8dct=1 / cqm=0 / deadzone=21,11 / fast_pskip=1 / chroma_qp_offset=0 / threads=6 / lookahead_threads=1 / sliced_threads=0 / nr=0 / decimate=1 / interlaced=0 / bluray_compat=0 / constrained_intra=0 / bframes=3 / b_pyramid=2 / b_adapt=1 / b_bias=0 / direct=1 / weightb=1 / open_gop=0 / weightp=1 / keyint=300 / keyint_min=30 / scenecut=40 / intra_refresh=0 / rc_lookahead=0 / rc=crf / mbtree=0 / crf=22.0 / qcomp=0.60 / qpmin=0 / qpmax=69 / qpstep=4 / vbv_maxrate=62500 / vbv_bufsize=78125 / crf_max=0.0 / nal_hrd=none / filler=0 / ip_ratio=1.40 / pb_ratio=1.30 / aq=1:1.00
Encoded date : UTC 2017-03-23 09:29:09
Tagged date : UTC 2017-03-23 10:29:59
Color range : Limited
Color primaries : BT.709
Transfer characteristics : BT.709
Matrix coefficients : BT.709

Audio
ID : 2
Format : AAC
Format/Info : Advanced Audio Codec
Format profile : LC
Codec ID : 40
Duration : 42mn 0s
Bit rate mode : Variable
Bit rate : 160 Kbps
Maximum bit rate : 198 Kbps
Channel(s) : 2 channels
Channel positions : Front: L R
Sampling rate : 48.0 KHz
Compression mode : Lossy
Stream size : 48.1 MiB (5%)
Encoded date : UTC 2017-03-23 10:29:54
Tagged date : UTC 2017-03-23 10:29:59

Text
ID : 4
Format : Timed Text
Codec ID : tx3g
Duration : 41mn 56s
Bit rate mode : Variable
Bit rate : 93 bps
Stream size : 28.5 KiB (0%)
Encoded date : UTC 2017-03-23 10:29:59
Tagged date : UTC 2017-03-23 10:29:59

Menu
ID : 3
Codec ID : text
Duration : 43mn 48s
Encoded date : UTC 2017-03-23 09:29:09
Tagged date : UTC 2017-03-23 10:29:59
Bit rate mode : CBR
00:00:00.000 : Chapter 1
00:11:28.121 : Chapter 2
00:19:04.144 : Chapter 3
00:26:51.210 : Chapter 4
00:34:10.215 : Chapter 5
00:38:59.271 : Chapter 6


Screenshots:

Travel Channel - Expedition Unknown: Corsica's Nazi Treasure (2017)

Travel Channel - Expedition Unknown: Corsica's Nazi Treasure (2017)

Travel Channel - Expedition Unknown: Corsica's Nazi Treasure (2017)

Travel Channel - Expedition Unknown: Corsica's Nazi Treasure (2017)