Tags
Language
Tags

Travel Ch. - Expedition Unknown: Searching For America's Lost Flight (2020)

Posted By: notbanned
720p (HD) / HDTV
Travel Ch. - Expedition Unknown: Searching For America's Lost Flight (2020)

Travel Ch. - Expedition Unknown: Searching For America's Lost Flight (2020)
HDTV | 1280x720 | .MKV/AVC @ 3060 Kbps | 1 h 12 min | 1.61 GiB
Audio: English AAC 127 kbps, 2 channels | Subs: English
Genre: Documentary

Josh Gates investigates the most mysterious airline disaster in American history – searching for why Northwest Flight 2501 vanished, taking the lives of all 58 people on board.

General
Unique ID : 229129084415399035866863593386671444994 (0xAC60A80F1C3C2958DD7C6AB6CA159402)
Complete name : Expedition.Unknown.Searching.For.Americas.Lost.Flight.720p.mkv
Format : Matroska
Format version : Version 4 / Version 2
File size : 1.61 GiB
Duration : 1 h 12 min
Overall bit rate : 3 170 kb/s

Video
ID : 2
Format : AVC
Format/Info : Advanced Video Codec
Format profile : High@L3.1
Format settings, CABAC : Yes
Format settings, ReFrames : 2 frames
Codec ID : V_MPEG4/ISO/AVC
Duration : 1 h 12 min
Bit rate : 3 060 kb/s
Width : 1 280 pixels
Height : 720 pixels
Display aspect ratio : 16:9
Frame rate mode : Constant
Frame rate : 29.970 FPS
Color space : YUV
Chroma subsampling : 4:2:0
Bit depth : 8 bits
Scan type : Progressive
Bits/(Pixel*Frame) : 0.111
Stream size : 1.55 GiB (96%)
Writing library : x264 core 148 r2579M 73ae2d1
Encoding settings : cabac=1 / ref=2 / deblock=1:0:0 / analyse=0x3:0x113 / me=hex / subme=2 / psy=1 / psy_rd=1.00:0.00 / mixed_ref=0 / me_range=16 / chroma_me=1 / trellis=0 / 8x8dct=1 / cqm=0 / deadzone=21,11 / fast_pskip=1 / chroma_qp_offset=0 / threads=4 / lookahead_threads=1 / sliced_threads=0 / nr=250 / decimate=1 / interlaced=0 / bluray_compat=0 / stitchable=1 / constrained_intra=0 / bframes=0 / weightp=1 / keyint=250 / keyint_min=25 / scenecut=40 / intra_refresh=0 / rc_lookahead=10 / rc=2pass / mbtree=1 / bitrate=3060 / ratetol=1.0 / qcomp=0.60 / qpmin=5 / qpmax=69 / qpstep=4 / cplxblur=20.0 / qblur=0.5 / vbv_maxrate=6120 / vbv_bufsize=3060 / nal_hrd=none / filler=0 / ip_ratio=1.40 / aq=1:1.00
Language : English
Default : Yes
Forced : No
Color range : Limited
Color primaries : BT.709
Transfer characteristics : BT.709
Matrix coefficients : BT.709

Audio
ID : 1
Format : AAC
Format/Info : Advanced Audio Codec
Format profile : HE-AAC / LC
Codec ID : A_AAC
Duration : 1 h 12 min
Bit rate : 127 kb/s
Channel(s) : 2 channels
Channel positions : Front: L R
Sampling rate : 48.0 kHz / 24.0 kHz
Frame rate : 23.438 FPS (1024 spf)
Compression mode : Lossy
Delay relative to video : -44 ms
Stream size : 66.0 MiB (4%)
Language : English
Default : Yes
Forced : No

Text
ID : 3
Format : UTF-8
Codec ID : S_TEXT/UTF8
Codec ID/Info : UTF-8 Plain Text
Duration : 1 h 12 min
Bit rate : 128 b/s
Count of elements : 1486
Stream size : 68.6 KiB (0%)
Language : English
Default : No
Forced : No


Screenshots:

Travel Ch. - Expedition Unknown: Searching For America's Lost Flight (2020)

Travel Ch. - Expedition Unknown: Searching For America's Lost Flight (2020)

Travel Ch. - Expedition Unknown: Searching For America's Lost Flight (2020)

Travel Ch. - Expedition Unknown: Searching For America's Lost Flight (2020)