Exposed: The Case of Keli Lane (2018)

Posted By: notbanned
720p (HD) / HDTV
Exposed: The Case of Keli Lane (2018)

Exposed: The Case of Keli Lane (2018)
HDTV | 1280x720 | .MKV/AVC @ 1827 Kbps | 3x~59min | 2.52 GiB
Audio: English MP2 256 kbps, 2 channels | Subs: English
Genre: Documentary

In this ground-breaking three-part television event, Caro Meldrum-Hanna investigates one of Australia's most notorious crimes: the disappearance of baby Tegan Lane and the conviction of her mother Keli Lane of her murder.
Episode 1
In this ground-breaking three-part factual series, Caro Meldrum-Hanna investigates one of Australia's most notorious crimes: the disappearance of two-day old Tegan Lane and the conviction of her mother Keli Lane of murder.

Episode 2
Award winning investigative journalists Caro Meldrum-Hanna and Elise Worthington continue to pry open the police investigation into the mysterious disappearance of Keli Lane's baby Tegan, making surprising discoveries.

Episode 3
Keli Lane's lies come back to haunt her when she is charged with baby Tegan's murder. In the season final, Caro and Elise investigate what went on behind the scenes in Keli's extraordinary murder trial.

General
Unique ID : 225526898528630230131993861470007321559 (0xA9AAE6953320DE9DE0D9BF2BA5A7E3D7)
Complete name : Exposed-The.Case.Of.Keli.Lane.Part.1.720p.mkv
Format : Matroska
Format version : Version 4 / Version 2
File size : 881 MiB
Duration : 59 min 5 s
Overall bit rate : 2 085 kb/s

Video
ID : 1
Format : AVC
Format/Info : Advanced Video Codec
Format profile : High@L4.1
Format settings, CABAC : Yes
Format settings, ReFrames : 5 frames
Codec ID : V_MPEG4/ISO/AVC
Duration : 59 min 5 s
Bit rate : 1 827 kb/s
Width : 1 280 pixels
Height : 720 pixels
Display aspect ratio : 16:9
Frame rate mode : Constant
Frame rate : 25.000 FPS
Color space : YUV
Chroma subsampling : 4:2:0
Bit depth : 8 bits
Scan type : Progressive
Bits/(Pixel*Frame) : 0.079
Stream size : 772 MiB (88%)
Writing library : x264 core 157 r2935 545de2f
Encoding settings : cabac=1 / ref=5 / deblock=1:-2:-2 / analyse=0x3:0x113 / me=hex / subme=8 / psy=1 / psy_rd=1.00:0.00 / mixed_ref=1 / me_range=16 / chroma_me=1 / trellis=2 / 8x8dct=1 / cqm=0 / deadzone=21,11 / fast_pskip=1 / chroma_qp_offset=-2 / threads=12 / lookahead_threads=2 / sliced_threads=0 / nr=0 / decimate=1 / interlaced=0 / bluray_compat=0 / constrained_intra=0 / bframes=3 / b_pyramid=2 / b_adapt=1 / b_bias=0 / direct=3 / weightb=1 / open_gop=0 / weightp=2 / keyint=250 / keyint_min=25 / scenecut=40 / intra_refresh=0 / rc_lookahead=50 / rc=crf / mbtree=1 / crf=20.0 / qcomp=0.60 / qpmin=0 / qpmax=69 / qpstep=4 / ip_ratio=1.40 / aq=1:1.00
Language : English
Default : Yes
Forced : No

Audio
ID : 2
Format : MPEG Audio
Format version : Version 1
Format profile : Layer 2
Codec ID : A_MPEG/L2
Codec ID/Hint : MP2
Duration : 59 min 5 s
Bit rate mode : Constant
Bit rate : 256 kb/s
Channel(s) : 2 channels
Sampling rate : 48.0 kHz
Frame rate : 41.667 FPS (1152 spf)
Compression mode : Lossy
Stream size : 108 MiB (12%)
Language : English
Default : Yes
Forced : No

Text
ID : 3
Format : UTF-8
Codec ID : S_TEXT/UTF8
Codec ID/Info : UTF-8 Plain Text
Duration : 58 min 56 s
Bit rate : 89 b/s
Count of elements : 1039
Stream size : 38.7 KiB (0%)
Language : English
Default : Yes
Forced : No


Screenshots:

Exposed: The Case of Keli Lane (2018)

Exposed: The Case of Keli Lane (2018)

Exposed: The Case of Keli Lane (2018)

Exposed: The Case of Keli Lane (2018)