Tags
Language
Tags

Sci Ch. - Extreme Ice Machines: Series 1 (2020)

Posted By: Tutorial
1080p (FullHD) / HDTV
Sci Ch. - Extreme Ice Machines: Series 1 (2020)

Sci Ch. - Extreme Ice Machines: Series 1 (2020)
HDTV | 1920 x 1080 | .MP4/AVC @ 4500 Kbps | 6x~42mn | 8.01 GB
Audio: English AAC 161 Kbps, 2 channels | Subs: English
Genre: Documentary

From living among polar bears, to servicing the world's northern most airport, the incredible engineers behind these innovative machines break down these groundbreaking inventions and prove how they help us to survive in conditions that could otherwise be deadly.

Part 1: Monster of the Arctic
An amphibious excavator battles melting ice that threatens to flood a town.


Part 2: Subzero Special Ops
Military rescue efforts in the arctic rely on a specialized helicopter.


Part 3: Arctics Toughest
The world's only actual all-terrain vehicle is an Arctic mega monster that can conquer land, snow, and water in dangerous conditions; elsewhere in avalanche country, only one machine can climb deadly mountains and protect a major highway.


Part 4: US Army Super Helicopter
A helicopter made for extreme environments aids US Army rescue efforts.


Part 5: Giants of the North
See how tourists explore the far reaches of northern Canada and gain exclusive access to polar bears on custom-built rovers, and how the Twin Otter aircraft drops much needed supplies to isolated villages.


Part 6: Best in the Snow
The Yeti is a custom-made snow-eater that keeps a critical Alaskan airport open for business, and experts reveal how cutting-edge engineering and the latest technology keep this machine running in the toughest conditions.

General
Complete name : Extreme.Ice.Machines.Series.1.1of6.Monster.of.the.Arctic.mp4
Format : MPEG-4
Format profile : Base Media
Codec ID : isom (isom/iso2/avc1/mp41)
File size : 1.34 GiB
Duration : 42 min 3 s
Overall bit rate mode : Variable
Overall bit rate : 4 566 kb/s
Movie name : Extreme.Ice.Machines.Series.1.1of6.Monster.of.the.Arctic.1080p.HDTV.x264.AAC..org
Performer : VideoProc
Genre : Video
Writing application : Lavf58.29.100
Comment : Extreme.Ice.Machines.Series.1.1of6.Monster.of.the.Arctic.1080p.HDTV.x264.AAC..org

Video
ID : 1
Format : AVC
Format/Info : Advanced Video Codec
Format profile : Main@L4.2
Format settings, CABAC : Yes
Format settings, ReFrames : 1 frame
Codec ID : avc1
Codec ID/Info : Advanced Video Coding
Duration : 42 min 3 s
Bit rate : 4 500 kb/s
Width : 1 920 pixels
Height : 1 080 pixels
Display aspect ratio : 16:9
Frame rate mode : Constant
Frame rate : 23.976 (24000/1001) FPS
Color space : YUV
Chroma subsampling : 4:2:0
Bit depth : 8 bits
Scan type : Progressive
Bits/(Pixel*Frame) : 0.091
Stream size : 1.29 GiB (96%)
Writing library : x264 core 159
Encoding settings : cabac=1 / ref=1 / deblock=1:-1:-1 / analyse=0x1:0x11 / me=hex / subme=2 / psy=1 / psy_rd=1.00:0.15 / mixed_ref=0 / me_range=16 / chroma_me=1 / trellis=0 / 8x8dct=0 / cqm=0 / deadzone=21,11 / fast_pskip=1 / chroma_qp_offset=0 / threads=3 / lookahead_threads=1 / sliced_threads=0 / nr=0 / decimate=1 / interlaced=0 / bluray_compat=0 / constrained_intra=0 / bframes=0 / weightp=1 / keyint=250 / keyint_min=25 / scenecut=40 / intra_refresh=0 / rc_lookahead=10 / rc=cbr / mbtree=1 / bitrate=4500 / ratetol=1.0 / qcomp=0.60 / qpmin=0 / qpmax=69 / qpstep=4 / vbv_maxrate=4500 / vbv_bufsize=1835 / nal_hrd=none / filler=0 / ip_ratio=1.40 / aq=1:1.00

Audio
ID : 2
Format : AAC
Format/Info : Advanced Audio Codec
Format profile : LC
Codec ID : 40
Duration : 42 min 3 s
Bit rate mode : Constant
Bit rate : 160 kb/s
Channel(s) : 2 channels
Channel positions : Front: L R
Sampling rate : 48.0 kHz
Frame rate : 46.875 FPS (1024 spf)
Compression mode : Lossy
Stream size : 48.3 MiB (4%)
Language : English
Default : Yes
Alternate group : 1

Text
ID : 3
Format : Timed Text
Muxing mode : sbtl
Codec ID : tx3g
Duration : 42 min 1 s
Bit rate mode : Variable
Bit rate : 104 b/s
Stream size : 32.1 KiB (0%)
Language : Avestan
Default : Yes
Forced : No
Alternate group : 3
Screenshots

Sci Ch. - Extreme Ice Machines: Series 1 (2020)

Sci Ch. - Extreme Ice Machines: Series 1 (2020)

Sci Ch. - Extreme Ice Machines: Series 1 (2020)

Welcome to my blog - daily update!
Sci Ch. - Extreme Ice Machines: Series 1 (2020)