Tags
Language
Tags

Factory Girl (2006)

Posted By: RSU75
1080p (FullHD) / BDRip IMDb
Factory Girl (2006)

Factory Girl (2006)
BDRip 1080p | MKV | AVC, 1920x1080, ~ 4.1 Mbps | 1hr 39mn | 4.56 MB
English: DTS, 6 ch, 1510 kbps; English \ French: AC3, 6 ch, 448 kbps; English (Commentary): AC3, 2 ch, 192 kbps
Subtitles: English, French
Genre: Biography, Drama



Director: George Hickenlooper
Writers: Captain Mauzner (screenplay), Simon Monjack (story), Aaron Richard Golub (story)
Stars: Sienna Miller, Guy Pearce, Hayden Christensen

Based on the rise and fall of socialite Edie Sedgwick, concentrating on her relationships with Andy Warhol and a folk singer.

Extras:
- Commentary by director




General
Unique ID : 251184353888038437952129019980885385711 (0xBCF858CC914C1D20A80120459A99E1EF)
Complete name : F:\FactoryGirl.2006.1p.mkv
Format : Matroska
Format version : Version 4
File size : 4.56 GiB
Duration : 1 h 39 min
Overall bit rate : 6 538 kb/s
Movie name : Release RSU75 for the Bestmoviesworld.xyz
Encoded date : UTC 2022-01-14 03:33:38
Writing application : mkvmerge v8.3.0 ('Over the Horizon') 64bit
Writing library : libebml v1.3.1 + libmatroska v1.4.2

Video
ID : 1
Format : AVC
Format/Info : Advanced Video Codec
Format profile : High@L4.1
Format settings : CABAC / 4 Ref Frames
Format settings, CABAC : Yes
Format settings, Reference fra : 4 frames
Codec ID : V_MPEG4/ISO/AVC
Duration : 1 h 39 min
Bit rate : 3 899 kb/s
Nominal bit rate : 4 100 kb/s
Width : 1 920 pixels
Height : 1 080 pixels
Display aspect ratio : 16:9
Frame rate mode : Constant
Frame rate : 23.976 (23976/1000) FPS
Color space : YUV
Chroma subsampling : 4:2:0
Bit depth : 8 bits
Scan type : Progressive
Bits/(Pixel*Frame) : 0.078
Stream size : 2.72 GiB (60%)
Writing library : x264 core 148 r2643 5c65704
Encoding settings : cabac=1 / ref=4 / deblock=1:0:0 / analyse=0x3:0x113 / me=umh / subme=8 / psy=1 / psy_rd=1.00:0.00 / mixed_ref=1 / me_range=24 / chroma_me=1 / trellis=1 / 8x8dct=1 / cqm=0 / deadzone=21,11 / fast_pskip=1 / chroma_qp_offset=-2 / threads=3 / lookahead_threads=1 / sliced_threads=0 / nr=0 / decimate=1 / interlaced=0 / bluray_compat=0 / constrained_intra=0 / bframes=3 / b_pyramid=0 / b_adapt=2 / b_bias=0 / direct=3 / weightb=1 / open_gop=0 / weightp=2 / keyint=250 / keyint_min=25 / scenecut=40 / intra_refresh=0 / rc_lookahead=40 / rc=abr / mbtree=1 / bitrate=4100 / ratetol=1.0 / qcomp=0.60 / qpmin=10 / qpmax=51 / qpstep=4 / ip_ratio=1.41 / aq=1:1.00
Language : English
Default : Yes
Forced : No

Audio #1
ID : 2
Format : DTS
Format/Info : Digital Theater Systems
Codec ID : A_DTS
Duration : 1 h 39 min
Bit rate mode : Constant
Bit rate : 1 509 kb/s
Channel(s) : 6 channels
Channel layout : C L R Ls Rs LFE
Sampling rate : 48.0 kHz
Frame rate : 93.750 FPS (512 SPF)
Bit depth : 24 bits
Compression mode : Lossy
Stream size : 1.05 GiB (23%)
Title : Surround 5.1
Language : English
Default : Yes
Forced : No

Audio #2
ID : 3
Format : AC-3
Format/Info : Audio Coding 3
Commercial name : Dolby Digital
Codec ID : A_AC3
Duration : 1 h 39 min
Bit rate mode : Constant
Bit rate : 448 kb/s
Channel(s) : 6 channels
Channel layout : L R C LFE Ls Rs
Sampling rate : 48.0 kHz
Frame rate : 31.250 FPS (1536 SPF)
Compression mode : Lossy
Stream size : 320 MiB (7%)
Title : Surround 5.1
Language : English
Service kind : Complete Main
Default : No
Forced : No

Audio #3
ID : 4
Format : AC-3
Format/Info : Audio Coding 3
Commercial name : Dolby Digital
Codec ID : A_AC3
Duration : 1 h 39 min
Bit rate mode : Constant
Bit rate : 448 kb/s
Channel(s) : 6 channels
Channel layout : L R C LFE Ls Rs
Sampling rate : 48.0 kHz
Frame rate : 31.250 FPS (1536 SPF)
Compression mode : Lossy
Stream size : 320 MiB (7%)
Title : Surround 5.1
Language : French
Service kind : Complete Main
Default : No
Forced : No

Audio #4
ID : 5
Format : AC-3
Format/Info : Audio Coding 3
Commercial name : Dolby Digital
Codec ID : A_AC3
Duration : 1 h 39 min
Bit rate mode : Constant
Bit rate : 192 kb/s
Channel(s) : 2 channels
Channel layout : L R
Sampling rate : 48.0 kHz
Frame rate : 31.250 FPS (1536 SPF)
Compression mode : Lossy
Stream size : 137 MiB (3%)
Title : Stereo
Language : English
Service kind : Complete Main
Default : No
Forced : No

Text #1
ID : 6
Format : PGS
Muxing mode : zlib
Codec ID : S_HDMV/PGS
Codec ID/Info : Picture based subtitle format used on BDs/HD-DVDs
Duration : 1 h 38 min
Bit rate : 18.2 kb/s
Count of elements : 3380
Stream size : 12.9 MiB (0%)
Language : English
Default : Yes
Forced : No

Text #2
ID : 7
Format : PGS
Muxing mode : zlib
Codec ID : S_HDMV/PGS
Codec ID/Info : Picture based subtitle format used on BDs/HD-DVDs
Duration : 1 h 39 min
Bit rate : 18.0 kb/s
Count of elements : 3404
Stream size : 12.8 MiB (0%)
Language : French
Default : No
Forced : No

Text #3
ID : 8
Format : PGS
Muxing mode : zlib
Codec ID : S_HDMV/PGS
Codec ID/Info : Picture based subtitle format used on BDs/HD-DVDs
Duration : 1 h 36 min
Bit rate : 2 456 b/s
Count of elements : 452
Stream size : 1.69 MiB (0%)
Language : French
Default : No
Forced : No

Menu
00:00:00.000 : en:Chapter 01
00:04:22.303 : en:Chapter 02
00:10:08.274 : en:Chapter 03
00:18:04.208 : en:Chapter 04
00:24:34.014 : en:Chapter 05
00:34:02.165 : en:Chapter 06
00:38:56.167 : en:Chapter 07
00:45:26.515 : en:Chapter 08
00:53:28.830 : en:Chapter 09
01:00:50.355 : en:Chapter 10
01:06:32.363 : en:Chapter 11
01:13:39.415 : en:Chapter 12
01:20:54.099 : en:Chapter 13
01:25:23.827 : en:Chapter 14
01:30:02.772 : en:Chapter 15
01:34:27.370 : en:Chapter 16




Screenshots (click to enlarge to original size):

Factory Girl (2006)

Factory Girl (2006)

Factory Girl (2006)






More in My Blog



If you like this release please visit my blog
In it you will find BDRip releases in different languages