Tags
Language
Tags
December 2022
Su Mo Tu We Th Fr Sa
27 28 29 30 1 2 3
4 5 6 7 8 9 10
11 12 13 14 15 16 17
18 19 20 21 22 23 24
25 26 27 28 29 30 31

Fairy Tale Killer (2012)

Posted By: Tavaz
720p (HD) / BDRip IMDb
Fairy Tale Killer (2012)

Fairy Tale Killer (2012)
BDRip | MKV | 1280x544 | Chinese / Chinese | H264 @ 5228 kbps | AC-3 @ 640 kbps | 1 h 33 min | 4.35 GiB
Genre: Horror, Thriller

When a bloodied and incoherent Jun (Wang Baoqiang) confesses to five murders that have not occurred, the police assume that he's mentally unstable and ignore his claims. Police detective Han (Lau Ching-wan) is investigating a series of gruesome murders, but soon discovers that all is not as it seems and that not only are the murders connected, but that Jun is tied to them in some way.

Fairy.Tale.Killer.2012.BluRay.720p.DTS.2Audio.x264-CHD.mkv (4.4 GB)




General
Unique ID : 250413804917049555411872037683698869272 (0xBC63F1CD3A2B6CBDA79024286B0C2418)
Complete name : ./Fairy.Tale.Killer.2012.BluRay.720p.DTS.2Audio.x264-CHD.mkv
Format : Matroska
Format version : Version 2
File size : 4.35 GiB
Duration : 1 h 33 min
Overall bit rate : 6 635 kb/s
Encoded date : UTC 2012-07-19 15:22:05
Writing application : mkvmerge v3.2.0 ('Beginnings') 编译于 Feb 12 2010 16:46:17
Writing library : libebml v0.7.9 + libmatroska v0.8.1

Video
ID : 1
Format : AVC
Format/Info : Advanced Video Codec
Format profile : High@L4.1
Format settings : CABAC / 10 Ref Frames
Format settings, CABAC : Yes
Format settings, RefFrames : 10 frames
Codec ID : V_MPEG4/ISO/AVC
Duration : 1 h 33 min
Bit rate : 5 228 kb/s
Width : 1 280 pixels
Height : 544 pixels
Display aspect ratio : 2.35:1
Frame rate mode : Constant
Frame rate : 24.000 FPS
Color space : YUV
Chroma subsampling : 4:2:0
Bit depth : 8 bits
Scan type : Progressive
Bits/(Pixel*Frame) : 0.313
Stream size : 3.34 GiB (77%)
Title : Fairy.Tale.Killer.2012
Writing library : x264 core 120 r2146 bcd41db
Encoding settings : cabac=1 / ref=10 / deblock=1:-3:-3 / analyse=0x3:0x113 / me=umh / subme=10 / psy=1 / psy_rd=1.00:0.05 / mixed_ref=1 / me_range=32 / chroma_me=1 / trellis=2 / 8x8dct=1 / cqm=0 / deadzone=21,11 / fast_pskip=0 / chroma_qp_offset=-2 / threads=8 / sliced_threads=0 / nr=0 / decimate=1 / interlaced=0 / bluray_compat=0 / constrained_intra=0 / bframes=5 / b_pyramid=2 / b_adapt=2 / b_bias=0 / direct=3 / weightb=1 / open_gop=0 / weightp=2 / keyint=250 / keyint_min=24 / scenecut=40 / intra_refresh=0 / rc=2pass / mbtree=0 / bitrate=5228 / ratetol=1.0 / qcomp=0.70 / qpmin=0 / qpmax=69 / qpstep=4 / cplxblur=20.0 / qblur=0.5 / ip_ratio=1.40 / pb_ratio=1.30 / aq=2:1.00
Language : Chinese
Default : No
Forced : No

Audio #1
ID : 2
Format : AC-3
Format/Info : Audio Coding 3
Format settings, Endianness : Big
Codec ID : A_AC3
Duration : 1 h 33 min
Bit rate mode : Constant
Bit rate : 640 kb/s
Channel(s) : 6 channels
Channel positions : Front: L C R, Side: L R, LFE
Sampling rate : 48.0 kHz
Frame rate : 31.250 FPS (1536 SPF)
Bit depth : 16 bits
Compression mode : Lossy
Stream size : 430 MiB (10%)
Title : DD5.1 640K Mandarin
Language : Chinese
Service kind : Complete Main
Default : Yes
Forced : No

Audio #2
ID : 3
Format : DTS
Format/Info : Digital Theater Systems
Mode : 16
Format settings, Endianness : Big
Codec ID : A_DTS
Duration : 1 h 33 min
Bit rate mode : Constant
Bit rate : 768 kb/s
Channel(s) : 6 channels
Channel positions : Front: L C R, Side: L R, LFE
Sampling rate : 48.0 kHz
Frame rate : 93.750 FPS (512 SPF)
Bit depth : 24 bits
Compression mode : Lossy
Stream size : 516 MiB (12%)
Title : DTS-CORE 768K Cantonese
Language : Chinese
Default : No
Forced : No





Fairy Tale Killer (2012)


Fairy Tale Killer (2012)


Fairy Tale Killer (2012)


Fairy Tale Killer (2012)


Fairy Tale Killer (2012)