Tags
Language
Tags

Wavelength Productions - Feels Good Man (2020)

Posted By: Tutorial
1080p (FullHD) / HDTV IMDb
Wavelength Productions - Feels Good Man (2020)

Wavelength Productions - Feels Good Man (2020)
HDTV | 1920 x 1080 | .MKV/HEVC @ 7638 Kbps | 1 h 33 min | 5.08 GB
Audio: English AAC 132 Kbps, 2 channels | Subs: English
Genre: Documentary, Science

Pepe the Frog started life in 2005 as a cute cartoon character in Boy's Club, an American indie comic on Myspace. Today, he is known as an international hate symbol after being hijacked by the alt-right. Pepe the Frog: Feels Good Man follows Pepe's creator, artist Matt Furie, as he fights to bring back his lovable comic-book character from the dark forces who stole him.

As the internet exploded, memes of the benign and chill frog-dude started sweeping the internet with lightning speed. Once his image found its way into controversial online community 4chan – the anonymous, anything-goes forum rife with misogyny and racism - there was no turning back. Pepe re-emerged from the darkest corner of the internet decorated with swastikas and spewing racist slurs. He was even caught up in Donald Trump's presidential campaign.

Exactly how that happened is a wild journey into the heart of online life today and an exploration of how a character meant to bring joy and fun slowly morphed into something else. Maybe, just maybe, he can change again.

General
Unique ID : 33914355333270336478102978132990136535 (0x1983AAD0C56399142D4679AC113A90D7)
Complete name : Feels.Good.Man.2020.mkv
Format : Matroska
Format version : Version 4 / Version 2
File size : 5.08 GiB
Duration : 1 h 33 min
Overall bit rate : 7 772 kb/s
Movie name : Feels Good Man 2020 []
Encoded date : UTC 2021-06-17 16:11:12
Writing application : mkvmerge v58.0.0 ('Supper's Ready') 64-bit
Writing library : libebml v1.4.2 + libmatroska v1.6.4

Video
ID : 1
Format : AVC
Format/Info : Advanced Video Codec
Format profile : High@L4
Format settings : CABAC / 4 Ref Frames
Format settings, CABAC : Yes
Format settings, RefFrames : 4 frames
Codec ID : V_MPEG4/ISO/AVC
Duration : 1 h 33 min
Bit rate mode : Constant
Bit rate : 7 638 kb/s
Nominal bit rate : 10 000 kb/s
Width : 1 920 pixels
Height : 1 080 pixels
Display aspect ratio : 16:9
Frame rate mode : Constant
Frame rate : 23.976 (24000/1001) FPS
Color space : YUV
Chroma subsampling : 4:2:0
Bit depth : 8 bits
Scan type : Progressive
Bits/(Pixel*Frame) : 0.154
Stream size : 4.99 GiB (98%)
Language : English
Default : Yes
Forced : No
Color range : Limited
Color primaries : BT.709
Transfer characteristics : BT.709
Matrix coefficients : BT.709

Audio
ID : 2
Format : AAC
Format/Info : Advanced Audio Codec
Format profile : LC
Codec ID : A_AAC-2
Duration : 1 h 33 min
Bit rate : 132 kb/s
Channel(s) : 2 channels
Channel positions : Front: L R
Sampling rate : 48.0 kHz
Frame rate : 46.875 FPS (1024 SPF)
Compression mode : Lossy
Stream size : 87.5 MiB (2%)
Language : English
Default : Yes
Forced : No

Text
ID : 3
Format : UTF-8
Codec ID : S_TEXT/UTF8
Codec ID/Info : UTF-8 Plain Text
Duration : 1 h 29 min
Bit rate : 93 b/s
Count of elements : 1779
Stream size : 61.2 KiB (0%)
Language : English
Default : No
Forced : No
Screenshots

Wavelength Productions - Feels Good Man (2020)

Wavelength Productions - Feels Good Man (2020)

Wavelength Productions - Feels Good Man (2020)

Welcome to my blog - daily update!

Wavelength Productions - Feels Good Man (2020)