Tags
Language
Tags

Fireman Sam - Set for Action! (2018)

Posted By: Tavaz
1080p (FullHD) / BDRip IMDb
Fireman Sam - Set for Action! (2018)

Fireman Sam - Set for Action! (2018)
BDRip | MKV | 1920x1080 | English | H264 @ 4500 kbps | AC-3 @ 448 kbps | 1 h 1 min | 2.09 GiB
Genre: Animation, Family

The alarm has sounded and the Pontypandy crew is off to rescue their friends and others in need. From engine sparks and wild fireworks to water rescue and more, you won't want to miss these adventures with your favorite hero, Fireman Sam!

f8c5901d33684effaad52f04131b4734.mkv (2.1 GB)



General
Unique ID : 250201988275308516671349657690282924732 (0xBC3B266F57E325AA8413B3657BE81ABC)
Complete name : ./f8c5901d33684effaad52f04131b4734.mkv
Format : Matroska
Format version : Version 4 / Version 2
File size : 2.09 GiB
Duration : 1 h 1 min
Overall bit rate : 4 858 kb/s
Movie name : RPG
Encoded date : UTC 2019-05-25 13:39:12
Writing application : HandBrake 1.2.0 2019021200
Writing library : Lavf58.20.100
ErrorDetectionType : Per level 1

Video
ID : 1
Format : AVC
Format/Info : Advanced Video Codec
Format profile : High@L4.1
Format settings : CABAC / 4 Ref Frames
Format settings, CABAC : Yes
Format settings, RefFrames : 4 frames
Codec ID : V_MPEG4/ISO/AVC
Duration : 1 h 1 min
Bit rate : 4 500 kb/s
Width : 1 920 pixels
Height : 1 080 pixels
Display aspect ratio : 16:9
Frame rate mode : Constant
Frame rate : 25.000 FPS
Color space : YUV
Chroma subsampling : 4:2:0
Bit depth : 8 bits
Scan type : Progressive
Bits/(Pixel*Frame) : 0.087
Stream size : 1.86 GiB (89%)
Writing library : x264 core 148
Encoding settings : cabac=1 / ref=1 / deblock=1:0:0 / analyse=0x3:0x113 / me=hex / subme=2 / psy=1 / psy_rd=1.00:0.00 / mixed_ref=0 / me_range=16 / chroma_me=1 / trellis=0 / 8x8dct=1 / cqm=0 / deadzone=21,11 / fast_pskip=1 / chroma_qp_offset=0 / threads=6 / lookahead_threads=2 / sliced_threads=0 / nr=0 / decimate=1 / interlaced=0 / bluray_compat=0 / constrained_intra=0 / bframes=3 / b_pyramid=2 / b_adapt=1 / b_bias=0 / direct=1 / weightb=1 / open_gop=0 / weightp=1 / keyint=250 / keyint_min=25 / scenecut=40 / intra_refresh=0 / rc_lookahead=10 / rc=abr / mbtree=1 / bitrate=4500 / ratetol=1.0 / qcomp=0.60 / qpmin=0 / qpmax=69 / qpstep=4 / vbv_maxrate=62500 / vbv_bufsize=78125 / nal_hrd=none / filler=0 / ip_ratio=1.40 / aq=1:1.00
Default : Yes
Forced : No
Color range : Limited
Color primaries : BT.709
Transfer characteristics : BT.709
Matrix coefficients : BT.709

Audio
ID : 2
Format : AC-3
Format/Info : Audio Coding 3
Format settings, Endianness : Big
Codec ID : A_AC3
Duration : 1 h 1 min
Bit rate mode : Constant
Bit rate : 448 kb/s
Channel(s) : 6 channels
Channel positions : Front: L C R, Side: L R, LFE
Sampling rate : 48.0 kHz
Frame rate : 31.250 FPS (1536 SPF)
Bit depth : 16 bits
Compression mode : Lossy
Delay relative to video : -5 ms
Stream size : 197 MiB (9%)
Title : Surround
Language : English
Service kind : Complete Main
Default : Yes
Forced : No

Menu
00:00:00.000 : :00:00:00.000
00:03:12.440 : :00:03:12.400
00:06:06.160 : :00:06:06.160
00:09:06.440 : :00:09:06.360
00:11:13.320 : :00:11:13.320
00:15:48.560 : :00:15:48.560
00:17:40.240 : :00:17:40.240
00:19:51.280 : :00:19:51.200
00:22:13.920 : :00:22:13.920
00:25:10.760 : :00:25:10.720
00:28:13.120 : :00:28:13.080
00:30:11.040 : :00:30:11.000
00:32:47.040 : :00:32:47.040
00:35:58.760 : :00:35:58.720
00:38:03.520 : :00:38:03.480
00:41:54.920 : :00:41:54.840
00:44:39.000 : :00:44:39.000
00:47:25.840 : :00:47:25.720
00:50:30.080 : :00:50:30.080
00:54:25.280 : :00:54:25.240
00:56:50.160 : :00:56:50.080
00:59:31.000 : :00:59:31.000





Fireman Sam - Set for Action! (2018)


Fireman Sam - Set for Action! (2018)


Fireman Sam - Set for Action! (2018)


Fireman Sam - Set for Action! (2018)


Fireman Sam - Set for Action! (2018)