Tags
Language
Tags

John Fernhout - Fortress of Peace (1965)

Posted By: Tutorial
720p (HD) / BluRay
John Fernhout - Fortress of Peace (1965)

John Fernhout - Fortress of Peace (1965)
BluRay | 1280 x 674 | .MKV/AVC @ 6654 Kbps | 22 min 7 s | 1.15 GB
Audio: English AC-3AAC 640 Kbps, 6 channels | Subs: None
Genre: Documentary

Wehrhafte Schweiz is a Swiss Army propaganda film, made for the Expo 64 national exhibition in the then-prevailing spirit of geistige Landesverteidigung, "cultural national defense".

It portrays the Swiss Army fighting against an unnamed, unseen enemy, using heavy weapons such as flamethrowers, artillery, tanks and bomber aircraft. After the enemy is repelled, the film closes with idyllic shots of beautiful Swiss landscapes.

The 20-minute film was shot using the latest action film techniques in the Cinerama format on expensive MCS-70 Super Panorama 70mm stock.

General
Unique ID : 63272073785981206545063667746059864675 (0x2F99C2166EAC4C9EF6C637E469304A63)
Complete name : Fortress.of.Peace.mkv
Format : Matroska
Format version : Version 4 / Version 2
File size : 1.15 GiB
Duration : 22 min 7 s
Overall bit rate : 7 442 kb/s
Movie name : Fortress of Peace (1964)
Encoded date : UTC 2019-07-21T18:09:05Z
Writing application : HandBrake 1.1.2 2018090500
Writing library : Lavf57.7.2

Video
ID : 1
Format : AVC
Format/Info : Advanced Video Codec
Format profile : High@L4
Format settings, CABAC : Yes
Format settings, ReFrames : 8 frames
Codec ID : V_MPEG4/ISO/AVC
Duration : 22 min 7 s
Bit rate : 6 654 kb/s
Width : 1 280 pixels
Height : 674 pixels
Display aspect ratio : 1.899
Frame rate mode : Constant
Frame rate : 23.976 (24000/1001) FPS
Color space : YUV
Chroma subsampling : 4:2:0
Bit depth : 8 bits
Scan type : Progressive
Bits/(Pixel*Frame) : 0.322
Stream size : 1.03 GiB (89%)
Writing library : x264 core 155 r2901 7d0ff22
Encoding settings : cabac=1 / ref=8 / deblock=1:-2:-2 / analyse=0x3:0x133 / me=umh / subme=9 / psy=1 / psy_rd=1.00:0.00 / mixed_ref=1 / me_range=28 / chroma_me=1 / trellis=2 / 8x8dct=1 / cqm=0 / deadzone=21,11 / fast_pskip=0 / chroma_qp_offset=-2 / threads=12 / lookahead_threads=1 / sliced_threads=0 / nr=0 / decimate=1 / interlaced=0 / bluray_compat=0 / constrained_intra=0 / bframes=6 / b_pyramid=2 / b_adapt=2 / b_bias=0 / direct=3 / weightb=1 / open_gop=0 / weightp=2 / keyint=240 / keyint_min=24 / scenecut=40 / intra_refresh=0 / rc_lookahead=50 / rc=crf / mbtree=1 / crf=18.0 / qcomp=0.60 / qpmin=0 / qpmax=69 / qpstep=4 / ip_ratio=1.40 / aq=1:1.00
Default : Yes
Forced : No
Color range : Limited
Color primaries : BT.709
Transfer characteristics : BT.709
Matrix coefficients : BT.709

Audio
ID : 2
Format : AC-3
Format/Info : Audio Coding 3
Format settings, Endianness : Big
Codec ID : A_AC3
Duration : 22 min 7 s
Bit rate mode : Constant
Bit rate : 640 kb/s
Channel(s) : 6 channels
Channel positions : Front: L C R, Side: L R, LFE
Sampling rate : 48.0 kHz
Frame rate : 31.250 FPS (1536 spf)
Bit depth : 16 bits
Compression mode : Lossy
Stream size : 101 MiB (9%)
Title : Surround
Language : English
Service kind : Complete Main
Default : Yes
Forced : No

Menu
00:00:00.000 : :Chapter 1
00:10:31.172 : :Chapter 2
Screenshots

John Fernhout - Fortress of Peace (1965)

John Fernhout - Fortress of Peace (1965)

Welcome to my blog - daily update!

John Fernhout - Fortress of Peace (1965)